<?xml version="1.0" standalone="no"?>
<!DOCTYPE svg PUBLIC "-//W3C//DTD SVG 1.1//EN" "http://www.w3.org/Graphics/SVG/1.1/DTD/svg11.dtd" >
<svg xmlns="http://www.w3.org/2000/svg" xmlns:xlink="http://www.w3.org/1999/xlink" version="1.1">
<metadata>
Created by FontForge 20170731 at Fri Nov 27 19:28:39 2020
 By Aleksey,,,
(c) 2000 Adobe Systems Incorporated. All Rights Reserved.
</metadata>
<defs>
<font id="TrajanPro-Bold" horiz-adv-x="1294" >
  <font-face 
    font-family="Trajan Pro"
    font-weight="700"
    font-stretch="normal"
    units-per-em="2048"
    panose-1="2 2 6 2 5 5 6 2 3 1"
    ascent="1536"
    descent="-512"
    x-height="1311"
    cap-height="1542"
    bbox="-508.125 -582 3129 2017"
    underline-thickness="102"
    underline-position="-307"
    unicode-range="U+0020-FB02"
  />
<missing-glyph horiz-adv-x="1024" 
d="M0 0v1434h1024v-1434h-1024zM512 809l348 522h-696zM573 717l349 -522v1044zM164 102h696l-348 523zM102 1239v-1044l349 522z" />
    <glyph glyph-name=".notdef" horiz-adv-x="1024" 
d="M0 0v1434h1024v-1434h-1024zM512 809l348 522h-696zM573 717l349 -522v1044zM164 102h696l-348 523zM102 1239v-1044l349 522z" />
    <glyph glyph-name=".null" horiz-adv-x="0" 
 />
    <glyph glyph-name="nonmarkingreturn" horiz-adv-x="682" 
 />
    <glyph glyph-name="space" unicode=" " horiz-adv-x="614" 
 />
    <glyph glyph-name="exclam" unicode="!" horiz-adv-x="655" 
d="M328 -35q-55 0 -84 35.5t-29 79.5q0 43 29.5 80t85.5 37q50 0 82 -30t32 -79q0 -52 -32.5 -87.5t-83.5 -35.5zM324 336q-16 0 -22 17t-9 57q-36 440 -51 557q-3 50 -17 184.5t-26 183.5q-3 12 -10 30t-7 24q0 14 11 32q62 78 184 129q47 21 78 21q18 0 18 -27
q0 -6 -5 -39t-13.5 -96t-14.5 -129q-1 -11 -42 -430.5t-44 -448.5q-3 -37 -8.5 -51t-21.5 -14z" />
    <glyph glyph-name="quotedbl" unicode="&#x22;" horiz-adv-x="737" 
d="M223 1546q32 0 44.5 -0.5t30.5 -3t24 -9t6 -17.5q0 -9 -13.5 -53t-32.5 -134.5t-30 -202.5q-11 -102 -29 -102q-17 0 -28 102q-11 112 -30 202.5t-32.5 134.5t-13.5 53q0 11 6 17.5t24 9t30 3t44 0.5zM514 1546q32 0 44 -0.5t30 -3t24 -9t6 -17.5q0 -9 -13 -53
t-32 -134.5t-30 -202.5q-11 -102 -29 -102t-29 102q-11 112 -30 202.5t-32 134.5t-13 53q0 11 6 17.5t24 9t30 3t44 0.5z" />
    <glyph glyph-name="numbersign" unicode="#" horiz-adv-x="1228" 
d="M1169 942h-241l-45 -307h229v-166h-252l-67 -469h-121l63 469h-311l-70 -469h-123l72 469h-244v166h267l47 307h-252v168h274l66 434h125l-68 -434h309l64 434h123l-64 -434h219v-168zM805 942h-307l-49 -307h313z" />
    <glyph glyph-name="dollar" unicode="$" horiz-adv-x="1228" 
d="M621 0l-19 -166q-2 -12 -20 -16l-64 -13q-17 -3 -14 21l20 174q-45 0 -125.5 11t-132.5 32q-45 20 -57 34t-12 54q0 113 30 248q12 49 31 49q10 0 13 -11t1 -44q-3 -46 11.5 -98t48.5 -89q40 -44 96 -68t104 -24l66 604q-181 138 -257.5 243.5t-76.5 244.5q0 73 27.5 135
t72 104t101.5 72t116.5 43.5t116.5 13.5l21 164q2 14 22 19l62 14q8 2 12.5 -0.5t3.5 -9.5l-24 -187q63 0 126 -12.5t99 -25.5q22 -7 28.5 -17t6.5 -35q0 -32 -9.5 -112.5t-15.5 -112.5q-5 -29 -22 -29q-21 0 -21 39q-1 33 -4 53.5t-17 49.5t-40 55q-26 27 -69 44t-71 17
l-63 -555q84 -56 141 -104t105 -107.5t71 -128.5t23 -151q0 -76 -21.5 -140.5t-57.5 -109t-81 -79t-95.5 -54.5t-97 -29.5t-89.5 -9.5zM633 973l55 495q-26 0 -54 -5t-62 -20.5t-60 -39.5t-43.5 -66.5t-17.5 -97.5q0 -41 13.5 -77t43 -70.5t55.5 -58.5t70 -60zM690 637
l-55 -543q102 6 168.5 79.5t66.5 182.5q0 88 -47.5 155.5t-132.5 125.5z" />
    <glyph glyph-name="percent" unicode="%" horiz-adv-x="1777" 
d="M1321 0q-93 0 -165.5 33t-114 87.5t-62.5 115.5t-21 124q0 74 21.5 141t64.5 124.5t118 92t173 34.5q75 0 137.5 -22t104 -58.5t70.5 -84t42 -97t13 -99.5q0 -73 -22 -140t-66 -124.5t-119.5 -92t-173.5 -34.5zM1329 70q92 0 144.5 80.5t52.5 211.5q0 78 -24 150.5
t-71 121t-106 48.5q-92 0 -141 -83.5t-49 -209.5q0 -77 22.5 -149t68 -121t103.5 -49zM635 -8l-129 -17q-20 -3 -24.5 2.5t3.5 24.5q89 199 248 563.5t278 639t126 288.5q-332 -27 -451 -33v-4q55 -32 93 -109.5t38 -172.5q0 -57 -13.5 -112t-43.5 -106t-73.5 -89.5
t-107.5 -61.5t-141 -23q-93 0 -165.5 33.5t-113.5 87.5t-62 115.5t-21 124.5q0 73 23 141t68 125.5t121.5 92t174.5 34.5q153 0 334.5 12t306.5 23.5t141 11.5q21 0 21 -8q0 -4 -3 -11.5t-9 -21.5t-11 -26l-588 -1500q-7 -21 -20 -24zM446 852q92 0 144.5 80.5t52.5 212.5
q0 78 -24 150t-71 120.5t-106 48.5q-92 0 -141 -83.5t-49 -209.5q0 -77 22.5 -149t68 -121t103.5 -49z" />
    <glyph glyph-name="ampersand" unicode="&#x26;" horiz-adv-x="1699" 
d="M119 418q0 85 34 167.5t87.5 144t108 105.5t104.5 68q-60 80 -81.5 146.5t-23.5 144.5q-1 50 16 101.5t56 101.5t95.5 88.5t142 62t188.5 23.5q145 0 248 -43q17 -6 24.5 -14.5t8.5 -15.5t1 -23q0 -47 -8.5 -141.5t-13.5 -121.5q-3 -21 -8.5 -27.5t-16.5 -6.5
q-9 0 -11.5 7.5t-2.5 31.5q0 103 -59 172q-77 92 -228 92q-35 0 -71 -12.5t-70.5 -38.5t-56 -73.5t-21.5 -109.5q0 -40 9 -79.5t31 -81.5t41 -73t58 -78t61 -72t71 -78.5t69 -75.5q73 -84 361 -342q36 50 67 139.5t31 175.5q0 60 -39 94q-33 31 -100 31q-25 0 -25 16
q0 21 33 21q102 0 246 -15q69 -7 69 -41q0 -116 -55.5 -248t-145.5 -237q133 -110 285 -201q47 -28 116.5 -49.5t102.5 -21.5q29 0 29 -19q0 -18 -61 -18h-158q-176 0 -264 28.5t-219 129.5q-31 -28 -50.5 -44t-68.5 -47t-95 -49t-119 -32.5t-153 -14.5q-126 0 -227 30.5
t-163 77.5t-104 109t-58.5 120.5t-16.5 115.5zM758 94q105 0 199 41t137 82q-81 70 -201.5 185.5t-167.5 166.5q-165 178 -219 256q-141 -103 -141 -311q0 -187 114 -303.5t279 -116.5z" />
    <glyph glyph-name="quotesingle" unicode="'" horiz-adv-x="446" 
d="M223 1546q32 0 44.5 -0.5t30.5 -3t24 -9t6 -17.5q0 -9 -13.5 -53t-32.5 -134.5t-30 -202.5q-11 -102 -29 -102q-17 0 -28 102q-11 112 -30 202.5t-32.5 134.5t-13.5 53q0 11 6 17.5t24 9t30 3t44 0.5z" />
    <glyph glyph-name="parenleft" unicode="(" horiz-adv-x="737" 
d="M315 657q0 -275 74.5 -483t208.5 -379q16 -21 16 -31q0 -14 -16 -14q-7 0 -20 10q-54 38 -110 91t-121 137t-114.5 177t-82.5 216t-33 250t35.5 254.5t88.5 226t118 184.5t119.5 139t96.5 81q16 12 25 12q6 0 10 -5.5t4 -11.5q0 -10 -12 -22q-39 -47 -84.5 -124.5
t-93 -185.5t-78.5 -247.5t-31 -274.5z" />
    <glyph glyph-name="parenright" unicode=")" horiz-adv-x="737" 
d="M422 621q0 275 -74.5 483t-208.5 379q-16 21 -16 30q0 15 16 15q8 0 21 -10q54 -38 110 -91t121 -137t114.5 -177t82.5 -216t33 -250t-36 -254.5t-89 -226t-118 -184.5t-119.5 -139t-96.5 -81q-16 -12 -25 -12q-6 0 -10 5.5t-4 11.5q0 10 12 22q39 47 84.5 124.5
t93 185.5t78.5 247.5t31 274.5z" />
    <glyph glyph-name="asterisk" unicode="*" horiz-adv-x="778" 
d="M379 1298q-6 0 -8 -6q-8 -12 -33 -79t-31 -91q-10 -35 -10 -47q0 -16 -25 -16q-46 0 -91.5 19.5t-45.5 33.5q0 11 21 35q14 21 91 86.5t99 77.5q6 6 6 12t-8 6q-42 5 -101 4.5t-83 -2.5q-28 -4 -35 -4q-10 0 -17.5 53.5t-7.5 92.5q0 17 5.5 21.5t21.5 4.5q40 0 121 -55
t108 -84q6 -6 15 -2q2 4 2 14q-6 61 -62 193q-12 24 -12 32q0 18 60 38t92 20q20 0 20 -23q0 -61 -68 -262q-4 -4 0 -12q3 -3 11 0q18 6 37 14.5t36 19t31.5 20.5t29.5 22t23 19t19 17l10 9q13 20 29 20q13 0 31 -61.5t18 -96.5q0 -13 -21 -16q-3 -2 -98.5 -1t-136.5 5
q-2 0 -10 -4q-4 -4 2 -14q20 -29 85.5 -79.5t86.5 -57.5q28 -7 28 -21q0 -21 -52.5 -63.5t-69.5 -42.5q-14 0 -33 28q-15 33 -39 104t-33 107q-6 12 -8 12z" />
    <glyph glyph-name="plus" unicode="+" horiz-adv-x="1124" 
d="M1042 457h-415v-418h-131v418h-414v125h414v417h131v-417h415v-125z" />
    <glyph glyph-name="comma" unicode="," horiz-adv-x="512" 
d="M131 145q0 52 52.5 97t101.5 45q13 0 21 -8.5t30 -42.5q45 -66 45 -107q0 -34 -27 -98q-80 -180 -161 -273q-3 -3 -9 -8.5t-9.5 -8t-8 -5t-8.5 -2.5q-5 0 -11 6.5t-6 13.5q0 6 8 19t9 16q59 102 59 178q0 40 -13.5 73t-29.5 49.5t-29.5 31.5t-13.5 24z" />
    <glyph glyph-name="hyphen" unicode="-" horiz-adv-x="870" 
d="M154 645h581q66 0 66 -29q0 -20 -20 -28t-72 -17q-76 -11 -278 -47.5t-251 -50.5q-21 -5 -51.5 -19t-38.5 -14q-23 0 -16 37l30 141q4 18 13.5 22.5t36.5 4.5z" />
    <glyph glyph-name="period" unicode="." horiz-adv-x="512" 
d="M254 0q-60 0 -91.5 38t-31.5 87q0 45 32.5 85t92.5 40q54 0 89.5 -33t35.5 -86q0 -56 -35 -93.5t-92 -37.5z" />
    <glyph glyph-name="slash" unicode="/" horiz-adv-x="1110" 
d="M109 -39l-72 47q-15 9 0 35l934 1516q12 19 28 10l74 -45q14 -7 2 -25l-940 -1526q-12 -21 -26 -12z" />
    <glyph glyph-name="zero" unicode="0" horiz-adv-x="1228" 
d="M1145 815q0 -255 -62.5 -445.5t-187 -297.5t-297.5 -107q-84 0 -155.5 27t-123 72t-93 107.5t-67.5 130.5t-43.5 143.5t-24.5 143.5t-7 134q0 183 33 334.5t98 267.5t171.5 181t244.5 65q98 0 178.5 -33t135.5 -91t95 -131t62.5 -160.5t32.5 -171t10 -169.5zM905 735
q0 138 -18.5 266.5t-55.5 237.5t-100 174.5t-143 65.5q-121 0 -192.5 -170t-71.5 -508q0 -139 18 -266.5t53.5 -237t98 -175t143.5 -65.5q82 0 143 86.5t93 240t32 351.5z" />
    <glyph glyph-name="one" unicode="1" horiz-adv-x="1228" 
d="M528 616l-2 326v268v4q0 29 -1 40.5t-8 20.5t-21 9q-17 0 -65 -20t-104 -46.5t-69 -31.5q-20 -8 -29 -8q-5 0 -10.5 7t-5.5 15q0 17 20 29q5 2 106.5 69t218 144.5t149.5 101.5q40 27 53 27q24 0 24 -43q0 -3 -1 -30.5t-3 -75t-4 -108.5t-3 -146t-1 -173v-379
q0 -370 8 -460q5 -54 20 -77.5t62 -33.5q62 -12 135 -12q7 0 13 -5.5t6 -15.5q0 -18 -33 -18q-91 0 -209 3t-133 3q-13 0 -143.5 -3t-206.5 -3q-35 0 -35 18q0 21 16 21q23 0 81 4.5t83 9.5q47 10 62 32.5t20 76.5q13 148 10 460z" />
    <glyph glyph-name="two" unicode="2" horiz-adv-x="1228" 
d="M911 0h-802q-11 0 -20 8.5t-9 20.5q0 16 41 53q21 19 65 57q63 55 96.5 84t95 86t97 95t88 97t83.5 105.5t67 108.5t55.5 118t33 121.5t13.5 130.5q0 93 -19.5 164.5t-49 113t-69 68t-74 35.5t-68.5 9q-139 0 -218 -74q-35 -34 -60.5 -94.5t-25.5 -102.5q0 -39 -26 -39
q-16 0 -19 39q-2 18 -7 113.5t-5 134.5q0 15 4.5 23t20.5 18q152 78 370 78q131 0 231.5 -34t161 -94.5t91 -138t30.5 -169.5q0 -81 -26 -165.5t-64.5 -156t-101 -150t-117.5 -137t-133.5 -128t-129.5 -112t-123 -99.5q-6 -5 -9 -7q-7 -6 -5.5 -10t9.5 -4h139q261 0 352 12
q192 22 234 182q8 33 25 33q16 0 16 -39q0 -24 -22 -131.5t-37 -161.5q-12 -40 -45.5 -50.5t-133.5 -10.5z" />
    <glyph glyph-name="three" unicode="3" horiz-adv-x="1228" 
d="M463 -35q-105 0 -188.5 14t-120.5 35q-22 11 -28.5 24t-6.5 34q0 177 14 256q6 39 23 39q18 0 18 -29q0 -50 19.5 -98t56 -87t96.5 -63t135 -24q78 0 144 21t117.5 62t80.5 109.5t29 157.5q0 78 -27 143.5t-65.5 107t-88.5 72.5t-90 45.5t-75 20.5q-39 7 -52.5 15
t-13.5 20q0 22 37 28q32 6 69 20t82.5 43t81.5 67t60.5 96.5t24.5 126.5q0 28 -8 59.5t-28 66.5t-50 62.5t-78.5 45.5t-108.5 18q-121 0 -202.5 -63.5t-81.5 -154.5q0 -30 -19 -30q-14 0 -16 28q-15 124 -15 205q0 15 5 23t24 16q167 74 363 74q94 0 170.5 -15.5t125 -42
t83.5 -57.5t52.5 -67t25 -65t7.5 -56q0 -70 -34.5 -137t-85 -113t-97 -76t-82.5 -43v-4q62 -14 122 -43.5t116.5 -77t91.5 -121t35 -161.5q0 -108 -45.5 -203.5t-127.5 -167.5t-205 -114t-269 -42z" />
    <glyph glyph-name="four" unicode="4" horiz-adv-x="1228" 
d="M711 403h-629q-51 0 -51 31q0 20 26 53q8 9 398.5 524.5t396.5 522.5q33 37 53 37q25 0 25 -35q0 -3 -1 -115.5t-1 -191.5v-666h157q33 0 63.5 10.5t31.5 10.5q18 0 18 -25q0 -15 -12.5 -62.5t-22.5 -66.5q-8 -15 -19 -21t-36 -6h-180q0 -179 6 -247q5 -53 22 -79t64 -36
q39 -8 92 -8q18 0 18 -21q0 -18 -32 -18q-66 0 -171 3t-118 3q-21 0 -119 -3t-162 -3q-32 0 -32 18q0 21 16 21q46 0 96 6q54 6 74 34.5t23 82.5q6 68 6 247zM711 563v633h-6q-40 -58 -224.5 -313.5t-232.5 -319.5h463z" />
    <glyph glyph-name="five" unicode="5" horiz-adv-x="1228" 
d="M393 -35q-117 0 -192 37q-25 13 -32 29t-7 51q0 204 8 258q7 37 23 37q18 0 18 -35q0 -274 278 -274q64 0 122.5 21.5t107.5 65t78.5 117.5t29.5 170q0 93 -39 173.5t-96.5 133t-130.5 92.5t-135.5 59.5t-116.5 27.5q-40 6 -37 41l47 540q3 27 39 27h502q69 0 115 8
q13 1 26 3.5t15 2.5q12 0 16 -8t4 -31q0 -94 -26 -262q-4 -24 -23 -24q-16 0 -16 28q0 25 -5 42t-22 34.5t-55 26t-98 8.5h-373l-29 -250q80 -13 156.5 -35t154.5 -55.5t143 -81t116 -105.5t79.5 -134t28.5 -162q0 -84 -24 -164.5t-77 -155.5t-130 -131.5t-191 -90.5
t-252 -34z" />
    <glyph glyph-name="six" unicode="6" horiz-adv-x="1228" 
d="M625 -35q-241 0 -391 157.5t-150 430.5q0 198 96.5 396.5t271 360t392.5 249.5q27 12 45 12q10 0 17 -5t7 -14q0 -18 -51 -45q-75 -42 -146.5 -103.5t-140.5 -151t-120.5 -192.5t-83 -235.5t-31.5 -273.5q0 -125 33.5 -235.5t106 -185.5t171.5 -75q113 0 185.5 87
t72.5 257q0 102 -25.5 183.5t-68 129.5t-92 72.5t-102.5 24.5q-56 0 -107 -14q-5 -1 -22 -7t-23 -6q-16 0 -16 21q0 16 22 31q104 73 266 73q103 0 186 -39t132 -101t74.5 -133t25.5 -142q0 -155 -71 -276t-192.5 -186t-270.5 -65z" />
    <glyph glyph-name="seven" unicode="7" horiz-adv-x="1228" 
d="M471 1536h655q50 0 50 -16q0 -17 -15 -37q-82 -117 -200.5 -383.5t-211.5 -536.5t-108 -397q-3 -7 -1.5 -41t1.5 -35q0 -31 -95 -78t-163 -47q-17 0 -23 5.5t-6 19.5q0 35 15 84q49 171 228 559.5t374 714.5h-531q-137 0 -192 -37q-26 -17 -45.5 -55.5t-22.5 -67.5
q-3 -27 -20 -27t-17 31q0 45 15.5 189t15.5 147q0 28 21 28q2 0 11.5 -2t29 -5t47.5 -6t77.5 -5t110.5 -2z" />
    <glyph glyph-name="eight" unicode="8" horiz-adv-x="1228" 
d="M600 -35q-231 0 -372.5 108t-141.5 294q0 82 30.5 155.5t84 129.5t119 99t143.5 74q-141 73 -219 163t-78 212q0 63 28 126t83 119t152.5 91t221.5 35q190 0 305 -83.5t115 -230.5q0 -76 -30 -142.5t-79 -112t-96.5 -75.5t-95.5 -48q41 -22 67 -37t69.5 -43.5t72 -53.5
t62.5 -62t54 -74.5t34 -86.5t14 -102q0 -91 -37 -173t-105 -145t-172 -100t-229 -37zM317 379q0 -136 87 -228t212 -92q123 0 206 86t83 224q0 43 -10.5 82t-25 69t-44 62t-52.5 53t-66.5 50t-70 45t-77.5 46q-46 -26 -85.5 -60t-76.5 -82.5t-58.5 -114t-21.5 -140.5z
M854 1239q0 112 -64.5 178t-160.5 66q-64 0 -113.5 -21.5t-78.5 -57t-43.5 -77t-14.5 -86.5q0 -92 64.5 -163t209.5 -152q23 11 44 23t51.5 39t52 59t37.5 82.5t16 109.5z" />
    <glyph glyph-name="nine" unicode="9" horiz-adv-x="1228" 
d="M610 1571q122 0 221 -43t163 -119t98 -177t34 -218q0 -163 -55 -317.5t-137 -267t-188.5 -211t-197.5 -158t-177 -99.5q-13 -8 -37 -8q-6 0 -12.5 6.5t-6.5 13.5q0 15 25 35q68 41 137 101t141.5 149.5t128 191.5t90.5 234.5t35 271.5q0 255 -91 389t-220 134
q-109 0 -177.5 -86.5t-68.5 -218.5q0 -89 22 -160t54 -112.5t71 -69t70.5 -37t55.5 -9.5q83 0 139 25q7 4 14.5 8.5t11.5 7.5t8 5t7 2q6 0 11 -6t5 -13q0 -12 -10 -22q-43 -46 -116 -70.5t-154 -24.5q-85 0 -156.5 25t-118.5 65t-80 92.5t-48 106.5t-15 107q0 209 145 343
t379 134z" />
    <glyph glyph-name="colon" unicode=":" horiz-adv-x="512" 
d="M254 61q-60 0 -91.5 38t-31.5 87q0 45 32.5 85t92.5 40q54 0 89.5 -32.5t35.5 -85.5q0 -56 -35 -94t-92 -38zM254 754q-59 0 -91 39t-32 86t32.5 86t92.5 39q54 0 89.5 -32.5t35.5 -86.5q0 -55 -35.5 -93t-91.5 -38z" />
    <glyph glyph-name="semicolon" unicode=";" horiz-adv-x="512" 
d="M131 166q0 51 52.5 96t101.5 45q13 0 21 -8.5t30 -42.5q45 -66 45 -106q0 -35 -27 -99q-79 -178 -161 -272q-4 -3 -9.5 -8.5t-9 -8.5t-8 -5.5t-8.5 -2.5q-5 0 -11 7t-6 14q0 6 8 19t9 16q59 102 59 178q0 40 -13.5 73t-29.5 49.5t-29.5 31.5t-13.5 24zM254 754
q-60 0 -91.5 38t-31.5 85q0 48 32 87.5t93 39.5q54 0 89.5 -32.5t35.5 -86.5q0 -56 -35.5 -93.5t-91.5 -37.5z" />
    <glyph glyph-name="less" unicode="&#x3c;" horiz-adv-x="1124" 
d="M1042 39l-960 410v143l960 409v-137l-804 -344l804 -344v-137z" />
    <glyph glyph-name="equal" unicode="=" horiz-adv-x="1124" 
d="M1042 649h-960v125h960v-125zM1042 262h-960v125h960v-125z" />
    <glyph glyph-name="greater" unicode="&#x3e;" horiz-adv-x="1124" 
d="M1042 449l-960 -410v137l805 344l-805 344v137l960 -409v-143z" />
    <glyph glyph-name="question" unicode="?" horiz-adv-x="1089" 
d="M512 1571q97 0 174.5 -20t125 -51.5t79 -73.5t43.5 -82t12 -80q0 -62 -15.5 -121t-38 -103t-61.5 -96t-70.5 -86.5t-82 -88.5t-80.5 -89q-104 -122 -104 -180q0 -62 32 -105q17 -26 17 -37q0 -5 -5.5 -10.5t-13.5 -5.5q-23 0 -104 64q-53 42 -72.5 71t-19.5 58
q0 50 41 104q18 23 65.5 78.5t69.5 85.5q103 139 141.5 230t38.5 192q0 38 -7.5 72.5t-25 68.5t-45 59t-70 40.5t-96.5 15.5q-66 0 -116.5 -23t-77.5 -57q-65 -85 -72 -170q-4 -41 -18 -41q-10 0 -13.5 6t-7.5 21q-8 39 -8 239q0 19 23 33q135 82 362 82zM475 -35
q-55 0 -84 35.5t-29 79.5q0 43 29.5 80t85.5 37q50 0 82.5 -30t32.5 -79q0 -52 -32.5 -87.5t-84.5 -35.5z" />
    <glyph glyph-name="at" unicode="@" horiz-adv-x="1847" 
d="M1444 330q-142 -97 -281 -97q-68 0 -109 48t-48 143q-4 64 6 125q-47 -64 -85 -109.5t-88 -95t-100.5 -76t-97.5 -26.5q-67 0 -99 53t-32 119q0 297 240 497q64 52 159.5 100t161.5 48q54 0 111 -17q44 51 100 68q14 4 20 -7.5t3 -23.5q-42 -97 -72.5 -254t-30.5 -274
q0 -101 28.5 -143.5t82.5 -42.5q33 0 72 17t80 55t74 90.5t54 132t21 171.5q0 111 -36.5 206.5t-106.5 168t-180.5 113.5t-248.5 41q-166 0 -308.5 -65.5t-241 -179.5t-154 -271.5t-55.5 -337.5q0 -281 159 -442.5t416 -161.5q129 0 228.5 24.5t163 61t139.5 98.5
q23 19 41 22t24 -10q9 -17 -35 -61q-90 -90 -253 -156.5t-353 -66.5q-141 0 -261.5 41t-214.5 122t-148 212.5t-54 299.5q0 183 81 357.5t210.5 300.5t296.5 203t334 77q165 0 292.5 -43t208 -121.5t121.5 -184.5t41 -236q0 -154 -73 -287.5t-203 -224.5zM1020 975
q-80 0 -144.5 -47.5t-105.5 -145.5q-55 -128 -55 -286q0 -46 10 -77.5t29 -31.5q46 0 121.5 80t152.5 186q42 179 86 293q-37 29 -94 29z" />
    <glyph glyph-name="A" unicode="A" horiz-adv-x="1433" 
d="M874 528h-456q-14 0 -19 -16l-110 -293q-31 -79 -31 -125q0 -63 82 -63h31q18 0 24 -4t6 -13q0 -20 -34 -20q-33 0 -109.5 3t-107.5 3q-1 0 -90 -3t-152 -3q-39 0 -39 20q0 17 25 17q31 0 63 4q65 8 102 52t72 132l514 1286q20 48 31.5 65t25.5 17q13 0 25 -15t27 -50
q20 -46 227.5 -567t280.5 -693q28 -65 54.5 -110t49.5 -67.5t40 -31.5t36 -14q41 -8 86 -8q26 0 26 -17q0 -12 -18.5 -16t-75.5 -4q-223 0 -387 4q-53 3 -59 10q-2 2 -2 6q0 16 28 19q12 3 19 16.5t0 30.5l-164 434q-6 14 -21 14zM459 631h377q14 0 10 12l-184 506
q-4 18 -11 18t-12 -18l-188 -504q-3 -14 8 -14z" />
    <glyph glyph-name="B" unicode="B" horiz-adv-x="1447" 
d="M336 588v360q0 368 -4 434q-3 55 -21 81t-67 36q-24 6 -80 6q-35 0 -35 19q0 18 45 18q63 0 165 -3t114 -3q54 0 136 3t113 3q106 0 187.5 -22t127.5 -54.5t74.5 -76t38 -80.5t9.5 -74q0 -61 -16 -113t-47 -96t-64.5 -77.5t-81.5 -71.5q68 -23 130 -60.5t118.5 -91.5
t90.5 -129.5t34 -161.5q0 -67 -20.5 -130.5t-64 -121t-106.5 -100.5t-154.5 -68.5t-201.5 -25.5q-13 0 -65 2.5t-79 3.5q-92 6 -153 6q-68 0 -117 -2q-24 0 -72.5 -2t-68.5 -2q-41 0 -41 20q0 17 33 17q37 0 73 8q28 5 40.5 33t19.5 80q10 86 10 436zM582 1419v-506
q0 -19 14 -22q27 -6 96 -6q104 0 148 39q84 68 84 217q0 73 -26 143t-86.5 122t-143.5 52q-48 0 -68 -4q-18 -5 -18 -35zM1051 342q0 112 -46 222.5t-153 185.5q-60 44 -170 49q-37 2 -88 2q-12 0 -12 -15v-485q0 -106 11.5 -142t59.5 -55q57 -24 150 -24q31 0 61.5 6.5
t65 24.5t61 46t43.5 76t17 109z" />
    <glyph glyph-name="C" unicode="C" horiz-adv-x="1638" 
d="M1069 -35q-446 0 -702 223q-254 222 -254 605q0 59 10.5 122.5t34.5 140.5t74 155.5t120 142.5q116 106 271.5 161.5t375.5 55.5q133 0 297 -21q38 -5 106 -18t99 -16t31 -25q0 -6 -1.5 -19t-4 -38t-4.5 -56q-2 -33 -3 -116.5t-3 -104.5q-3 -47 -25 -47q-21 0 -21 45
q-2 49 -22 99.5t-57 88.5q-52 56 -165.5 91.5t-250.5 35.5q-246 0 -385 -127q-189 -173 -189 -530q0 -140 41 -262t107.5 -206t151.5 -144t173.5 -88.5t172.5 -28.5q145 0 230 24t144 91q25 28 44.5 66.5t25.5 68.5q5 25 10 33t17 8q18 0 18 -31q0 -23 -15.5 -123.5
t-29.5 -148.5q-8 -27 -17.5 -38.5t-35.5 -21.5q-117 -47 -369 -47z" />
    <glyph glyph-name="D" unicode="D" horiz-adv-x="1916" 
d="M336 588v360q0 368 -4 434q-3 55 -21 81t-67 36q-24 6 -80 6q-35 0 -35 19q0 18 45 18q61 0 167 -3t128 -3q24 0 135 3t180 3q75 0 116 -0.5t118.5 -5t128 -13t121.5 -25.5t124 -41t110.5 -62t103.5 -86q198 -206 198 -521q0 -180 -63 -326.5t-160 -244.5
q-41 -42 -96 -79.5t-138 -76.5t-200.5 -62.5t-251.5 -23.5q-67 0 -236 13q-156 12 -200 12q-68 0 -117 -2q-24 0 -72.5 -2t-68.5 -2q-41 0 -41 20q0 17 33 17q37 0 73 8q28 5 40.5 33t19.5 80q10 86 10 436zM592 981v-258q0 -336 4 -414q5 -131 22 -155q24 -34 91 -58
t178 -24q158 0 269 34t202 113q172 148 172 510q0 176 -58 305.5t-139 206.5q-214 205 -581 205q-34 0 -78.5 -4t-55.5 -10q-24 -11 -24 -41q-2 -70 -2 -410z" />
    <glyph glyph-name="E" unicode="E" 
d="M336 588v360q0 368 -4 434q-3 55 -21 81t-67 36q-24 6 -80 6q-35 0 -35 19q0 18 45 18q28 0 84.5 -1t81.5 -1q106 -4 129 -4q473 0 512 2q68 7 88 12l15 5t18 4q12 0 12 -19q0 -5 -2.5 -18t-6.5 -43.5t-7 -71.5q0 -3 -4.5 -61.5t-6.5 -73.5q-5 -23 -20 -23q-18 0 -18 29
q0 42 -13 74q-12 31 -39 48t-98 25q-24 3 -138 6t-153 3q-14 0 -14 -21v-518q0 -23 14 -23q269 0 328 5q77 6 98 30q24 27 33 27q14 0 14 -16q0 -4 -2 -19t-6.5 -50.5t-7.5 -80.5q-1 -17 -3 -49t-3.5 -57t-1.5 -31q0 -39 -19 -39q-18 0 -18 18q-7 69 -8 74q-17 70 -115 80
q-59 6 -291 6q-12 0 -12 -20v-162v-318q2 -75 20.5 -109t68.5 -48.5t157 -14.5q139 0 192 25q40 19 60.5 53.5t31.5 97.5q5 31 23 31q8 0 11.5 -6t4 -12t0.5 -19q0 -35 -9 -115.5t-17 -111.5q-10 -38 -29 -45.5t-82 -7.5q-90 0 -354 6q-132 6 -213 6q-68 0 -117 -2
q-24 0 -72.5 -2t-68.5 -2q-41 0 -41 20q0 17 33 17q37 0 73 8q28 5 40.5 33t19.5 80q10 86 10 436z" />
    <glyph glyph-name="F" unicode="F" horiz-adv-x="1273" 
d="M594 754v-166q0 -350 10 -436q5 -51 21.5 -79t58.5 -34q58 -8 102 -8q35 0 35 -17q0 -20 -45 -20q-74 0 -184 3t-127 3q-23 0 -120.5 -3t-139.5 -3q-43 0 -43 20q0 17 31 17q37 0 73 8q28 5 40.5 33t19.5 80q10 86 10 436v360q0 368 -4 434q-3 55 -21 81t-67 36
q-24 6 -80 6q-35 0 -35 17q0 20 47 20q26 0 83 -1t83 -1q106 -4 129 -4q494 0 541 2q69 4 84 8q4 1 15 7t17 6t10.5 -5.5t4.5 -13.5q0 -5 -7 -33.5t-10 -58.5q-1 -6 -4.5 -79t-5.5 -87q-4 -29 -20 -29q-18 0 -21 33q0 49 -12 78q-12 24 -46.5 42t-88.5 19l-316 7
q-18 0 -18 -29v-512q0 -19 14 -19l262 2q49 0 93 3q64 3 88 36q2 2 6.5 8t6 7.5t5.5 3.5t8 2q13 0 13 -19q0 -5 -3 -23t-7 -47.5t-7 -56.5q-8 -82 -8 -149q0 -39 -21 -39q-16 0 -16 29q0 25 -12 63q-9 26 -35.5 47.5t-69.5 26.5q-51 6 -303 6q-14 0 -14 -18z" />
    <glyph glyph-name="G" unicode="G" horiz-adv-x="1814" 
d="M1579 356v-225q0 -41 -4 -52t-23 -22q-175 -92 -493 -92q-154 0 -291.5 29t-258 91.5t-208 155t-138 227.5t-50.5 300q0 231 101.5 404t254.5 266q134 81 264 107t287 26q92 0 203.5 -12t158.5 -21q105 -20 162 -22q17 -1 23 -7t6 -18q0 -3 -3.5 -35.5t-7 -110
t-3.5 -190.5q0 -43 -23 -43q-17 0 -20 27q-14 110 -70 170q-55 60 -177.5 109.5t-279.5 49.5q-53 0 -93 -3.5t-96 -15t-110.5 -39t-105.5 -69.5q-189 -158 -189 -501q0 -164 51 -306t143 -244.5t226 -161t293 -58.5q127 0 174 22q39 18 39 76v192q0 181 -2 242
q-2 54 -20.5 80.5t-67.5 36.5q-24 6 -80 6q-31 0 -31 16q0 21 43 21q59 0 165.5 -3t131.5 -3q31 0 118 3t122 3q41 0 41 -21q0 -16 -27 -16q-18 0 -55 -6q-41 -7 -58.5 -34.5t-19.5 -82.5q-2 -61 -2 -246z" />
    <glyph glyph-name="H" unicode="H" horiz-adv-x="1990" 
d="M604 891h782q13 0 13 14v43q0 368 -4 434q-3 55 -21 81t-67 36q-24 6 -80 6q-35 0 -35 19q0 18 43 18q62 0 168 -3t127 -3t117.5 3t140.5 3q43 0 43 -18q0 -19 -37 -19q-22 0 -59 -6q-40 -7 -56.5 -34t-19.5 -83q-4 -66 -4 -434v-360q0 -350 10 -438q5 -50 21.5 -78
t58.5 -33q58 -8 104 -8q33 0 33 -17q0 -20 -41 -20q-76 0 -188 3t-131 3t-115.5 -3t-140.5 -3q-43 0 -43 20q0 17 32 17q38 0 74 8q28 5 40.5 33t19.5 80q10 86 10 436v180q0 12 -13 12h-782q-12 0 -12 -12v-180q0 -350 10 -438q5 -50 21.5 -78t58.5 -33q58 -8 104 -8
q33 0 33 -17q0 -20 -41 -20q-76 0 -188 3t-131 3t-116 -3t-142 -3q-41 0 -41 20q0 17 33 17q37 0 73 8q28 5 40.5 33t19.5 80q10 86 10 436v360q0 368 -4 434q-3 55 -21 81t-67 36q-24 6 -80 6q-35 0 -35 19q0 18 43 18q62 0 168 -3t127 -3t117.5 3t140.5 3q43 0 43 -18
q0 -19 -37 -19q-21 0 -59 -6q-40 -7 -56.5 -34t-19.5 -83q-4 -66 -4 -434v-43q0 -14 12 -14z" />
    <glyph glyph-name="I" unicode="I" horiz-adv-x="925" 
d="M336 588v360q0 368 -4 434q-6 101 -70 115q-31 8 -74 8q-32 0 -32 21q0 16 49 16q41 0 140 -3t126 -3q22 0 115 3t135 3q43 0 43 -16q0 -21 -33 -21q-23 0 -61 -6q-40 -7 -56.5 -34t-19.5 -83q-4 -66 -4 -434v-360q0 -361 8 -449q5 -46 22 -70t60 -30q58 -8 104 -8
q33 0 33 -17q0 -20 -39 -20q-78 0 -190 3t-129 3q-19 0 -116 -3t-142 -3q-41 0 -41 20q0 17 33 17q37 0 73 8q29 6 42 30t18 72q10 86 10 447z" />
    <glyph glyph-name="J" unicode="J" horiz-adv-x="851" 
d="M336 360v588q0 368 -4 434q-3 55 -21 81t-67 36q-24 6 -80 6q-35 0 -35 19q0 18 45 18q61 0 166.5 -3t124.5 -3q21 0 117.5 3t140.5 3q43 0 43 -18q0 -19 -37 -19q-21 0 -59 -6q-40 -7 -56.5 -34t-19.5 -83q-4 -66 -4 -434v-379q0 -42 3 -138.5t3 -149.5q0 -226 -49 -363
q-35 -100 -121.5 -200.5t-226.5 -186.5q-40 -24 -103 -53q-23 -13 -41 -13q-6 0 -11 5t-5 12q0 14 45 37q42 22 98 78q23 24 42 48t34 55t26 54.5t19.5 65.5t14 66t9 79t5.5 82t3 96.5t1 101v115.5z" />
    <glyph glyph-name="K" unicode="K" horiz-adv-x="1572" 
d="M586 948v-90h10q20 22 207 216t221 235q77 91 91 117q11 21 11 36q0 35 -28 41q-27 6 -27 21q0 18 33 18q20 0 101 -3t110 -3q31 0 119 3t120 3q35 0 35 -18q0 -19 -30 -19q-58 0 -119 -22q-107 -42 -221 -154q-60 -58 -228 -225t-215 -217q53 -68 271.5 -305t283.5 -299
q116 -111 165 -148q66 -50 128 -74q73 -30 127 -30q27 0 27 -17q0 -11 -10.5 -15.5t-38.5 -4.5h-179q-98 0 -141 4q-76 7 -126.5 36t-127.5 97q-61 54 -279 305.5t-258 306.5l-22 31h-10v-186q0 -350 6 -438q7 -100 74 -111q58 -8 100 -8q27 0 27 -17q0 -20 -39 -20
q-66 0 -172 3t-123 3q-19 0 -116 -3t-142 -3q-41 0 -41 20q0 17 33 17q37 0 73 8q28 5 40.5 33t19.5 80q10 86 10 436v360q0 368 -4 434q-3 55 -21 81t-67 36q-24 6 -80 6q-35 0 -35 19q0 18 45 18q62 0 166 -3t121 -3q22 0 116 3t132 3q43 0 43 -18q0 -19 -29 -19
q-19 0 -57 -6q-40 -7 -56.5 -34t-19.5 -83q-4 -66 -4 -434z" />
    <glyph glyph-name="L" unicode="L" horiz-adv-x="1239" 
d="M592 948v-360q0 -124 0.5 -178.5t4.5 -122t13 -97t25 -43.5q28 -24 80.5 -34.5t167.5 -10.5q98 0 151 10t88 48q19 20 35 57t19 66q3 30 22 30q10 0 13 -7t3 -27q0 -25 -9.5 -111t-20.5 -125q-9 -35 -30.5 -45t-98.5 -10q-70 0 -346 6q-138 6 -250 6q-68 0 -117 -2
q-24 0 -72.5 -2t-68.5 -2q-41 0 -41 20q0 17 33 17q37 0 73 8q28 5 40.5 33t19.5 80q10 86 10 436v360q0 368 -4 434q-3 55 -21 81t-67 36q-24 6 -68 6q-35 0 -35 19q0 18 45 18q53 0 156 -3t125 -3q21 0 127.5 3t150.5 3q43 0 43 -18q0 -19 -36 -19q-42 0 -80 -6
q-40 -7 -56.5 -34t-19.5 -83q-4 -66 -4 -434z" />
    <glyph glyph-name="M" unicode="M" horiz-adv-x="2136" 
d="M209 199l203 1335q9 53 34 53q13 0 25 -12.5t31 -50.5l559 -1155l557 1169q13 27 22.5 38t22.5 11q28 0 37 -63l186 -1266q14 -101 35.5 -147.5t65.5 -59.5q66 -20 127 -20q32 0 32 -15q0 -22 -53 -22q-51 0 -206 4t-210 8q-59 5 -59 23q0 13 22 22q22 7 11 88l-123 901
h-8l-447 -929q-36 -74 -49.5 -94.5t-26.5 -20.5q-16 0 -61 84q-7 12 -10 18q-202 388 -236 465q-8 19 -43.5 95t-90 191t-79.5 169h-8l-107 -815q-6 -56 -6 -97q0 -51 62 -65q46 -10 86 -10q31 0 31 -15q0 -22 -50 -22q-49 0 -126 3t-89 3q-16 0 -91 -3t-111 -3
q-37 0 -37 22q0 15 32 15q31 0 62 6q63 13 84 162z" />
    <glyph glyph-name="N" unicode="N" horiz-adv-x="1939" 
d="M428 1133l23 -861q3 -114 20.5 -165t50.5 -62q41 -14 107 -14q35 0 35 -17q0 -20 -48 -20q-78 0 -162 3t-92 3q-5 0 -39 -1.5t-84.5 -3t-97.5 -1.5q-15 0 -24 1t-15 5.5t-6 13.5q0 17 33 17q56 0 92 10q38 12 50 63.5t14 190.5l18 1212q0 70 27 70q7 0 13 -2.5t14 -9.5
t13.5 -13t17 -18.5t18.5 -20.5q314 -339 634 -657q59 -59 165.5 -170t189 -197.5t96.5 -99.5h10l-20 920q-1 92 -16.5 130.5t-53.5 53.5q-31 12 -108 12q-33 0 -33 19q0 18 53 18q61 0 147.5 -3t100.5 -3q2 0 71.5 3t129.5 3q47 0 47 -18q0 -19 -37 -19t-62 -6
q-42 -12 -57.5 -49t-17.5 -125l-23 -1292q0 -64 -27 -64q-24 0 -69 45q-73 70 -301.5 299t-302.5 303q-99 98 -209 214.5t-194 209t-85 93.5h-6z" />
    <glyph glyph-name="O" unicode="O" horiz-adv-x="1898" 
d="M938 -35q-123 0 -231 25.5t-190 70t-150 106.5t-114.5 133t-78.5 150.5t-46.5 159t-14.5 158.5q0 77 14.5 155t46 157.5t78.5 150.5t116 134t153.5 108.5t196.5 71.5t240 26q382 0 605 -207t223 -559q0 -175 -60 -329t-168 -267t-268.5 -178.5t-351.5 -65.5zM1024 68
q36 0 72 5t84.5 22.5t91 46t85.5 79.5t73.5 118t49.5 167.5t19 222.5q0 168 -46.5 309t-127.5 235.5t-190.5 147t-235.5 52.5q-76 0 -143.5 -17t-135 -62.5t-116.5 -115.5t-79 -185t-30 -262q0 -214 74 -386t219 -274.5t336 -102.5z" />
    <glyph glyph-name="P" unicode="P" horiz-adv-x="1341" 
d="M336 588v360q0 368 -4 434q-3 55 -21 81t-67 36q-24 6 -80 6q-35 0 -35 19q0 18 45 18q61 0 167 -3t128 -3q41 0 145 3t152 3q256 0 381 -117q40 -38 71 -103t31 -140q0 -217 -142.5 -356.5t-361.5 -139.5q-33 0 -43 2q-24 5 -24 19q0 12 12.5 17t44.5 5q44 0 91.5 24
t89 66t68 107.5t26.5 140.5q0 200 -121 307q-87 80 -205 80q-56 0 -80 -8q-16 -6 -16 -39v-819q0 -350 10 -438q5 -50 21.5 -78t58.5 -33q58 -8 104 -8q33 0 33 -17q0 -20 -39 -20q-78 0 -189.5 3t-127.5 3q-19 0 -116 -3t-142 -3q-41 0 -41 20q0 17 33 17q37 0 73 8
q28 5 40.5 33t19.5 80q10 86 10 436z" />
    <glyph glyph-name="Q" unicode="Q" horiz-adv-x="1904" 
d="M1589 -170l-321 188q-62 -23 -151.5 -38t-170.5 -15q-125 0 -234.5 26t-193 71t-152 107t-115 134t-78 152.5t-46 161t-14.5 161.5q0 73 14.5 149t47 154t79.5 149t116 134t153 108.5t194 72t235 26.5q182 0 335.5 -54.5t263 -153.5t170.5 -245t61 -323q0 -103 -25 -200
t-63 -168.5t-88 -134.5t-94 -102.5t-87 -68.5l412 -211q477 -244 844 -244q214 0 399 72q30 10 31 10q7 0 12.5 -5t5.5 -13q0 -15 -24 -25q-321 -154 -649 -154q-226 0 -416 63t-451 216zM1022 68q40 0 78 5.5t87 23t90.5 46.5t82.5 80.5t70 120t47 170t18 225.5
q0 144 -34 266t-92 207t-134 145t-160 88t-170 28q-105 0 -193.5 -35.5t-160.5 -109.5t-113 -202.5t-41 -300.5q0 -177 51 -322.5t138 -239.5t199 -144.5t237 -50.5z" />
    <glyph glyph-name="R" unicode="R" horiz-adv-x="1546" 
d="M336 588v360q0 368 -4 434q-3 55 -21 81t-67 36q-24 6 -80 6q-35 0 -35 19q0 18 45 18q63 0 165.5 -3t115.5 -3q36 0 146.5 3t141.5 3q116 0 208.5 -18t168.5 -70q52 -36 96 -111.5t44 -168.5q0 -120 -61 -229t-210 -230q19 -24 85 -107.5t86.5 -109t71 -88t76.5 -92.5
t61.5 -70.5t64.5 -71.5q113 -116 229 -139q35 -6 57 -6q25 0 25 -17q0 -20 -39 -20h-195q-85 0 -132 8.5t-87 30.5q-62 33 -123 101t-157 200q-31 43 -80 112t-80 112.5t-43 57.5q-13 15 -37 15l-178 4q-16 0 -16 -17v-28q0 -352 10 -438q5 -51 21.5 -79t58.5 -34
q62 -8 100 -8q25 0 25 -17q0 -20 -41 -20q-70 0 -183 3t-118 3q-14 0 -109 -3t-141 -3q-41 0 -41 20q0 17 33 17q37 0 73 8q28 5 40.5 33t19.5 80q10 86 10 436zM578 1409v-623q0 -17 3.5 -24t14.5 -12q64 -21 156 -21q60 0 88 7t57 28q52 39 86.5 115t34.5 192
q0 83 -21 150t-54 108t-76 68.5t-83 38t-79 10.5q-82 0 -109 -8q-18 -5 -18 -29z" />
    <glyph glyph-name="S" unicode="S" horiz-adv-x="1191" 
d="M522 -35q-179 0 -299 53q-25 10 -32 23t-7 47q0 87 11 268q3 54 24 54t21 -35q0 -42 18 -105q32 -107 110.5 -157t182.5 -50q129 0 201.5 71.5t72.5 162.5q0 85 -41 160.5t-159 167.5l-95 73q-164 129 -233.5 243.5t-69.5 242.5q0 170 130.5 278.5t342.5 108.5
q140 0 273 -35q28 -6 28 -25q0 -8 -2 -36.5t-4 -83.5t-2 -125q0 -62 -22 -62q-21 0 -21 37q0 22 -12.5 61t-40.5 74q-80 101 -223 101q-112 0 -178 -58.5t-66 -152.5q0 -72 46 -136t171 -159l58 -43q185 -139 260 -257t75 -265q0 -101 -45 -195.5t-147 -161.5
q-130 -84 -326 -84z" />
    <glyph glyph-name="T" unicode="T" horiz-adv-x="1454" 
d="M608 588v839l-305 -8q-93 -3 -135 -14.5t-64 -44.5q-26 -40 -34 -72q-6 -24 -23 -24q-18 0 -18 32q0 21 18.5 116.5t24.5 119.5q9 39 24 39q5 0 32 -11.5t56 -13.5q98 -10 205 -10h811q64 0 141 10q52 10 56 10q10 0 13 -9t3 -34q0 -20 -3 -114.5t-3 -122.5
q-3 -33 -18 -33q-12 0 -16.5 8.5t-6.5 32.5l-2 23q-3 46 -60 78.5t-182 35.5l-258 6v-839q0 -350 10 -438q5 -50 21.5 -78t58.5 -33q58 -8 105 -8q33 0 33 -17q0 -20 -39 -20q-77 0 -190 3t-132 3t-116 -3t-142 -3q-41 0 -41 20q0 17 33 17q38 0 74 8q28 6 41 34.5t18 78.5
q10 86 10 436z" />
    <glyph glyph-name="U" unicode="U" horiz-adv-x="1744" 
d="M248 649v299q0 368 -4 434q-3 55 -21 81t-67 36q-24 6 -80 6q-35 0 -35 19q0 18 45 18q60 0 167 -3t132 -3q21 0 116.5 3t135.5 3q45 0 45 -18q0 -19 -33 -19q-21 0 -59 -6q-40 -7 -56.5 -34t-19.5 -83q-4 -66 -4 -434v-286q0 -211 39.5 -324.5t120.5 -179.5
q102 -84 256 -84q172 0 282 110q76 76 97.5 194t21.5 314v256q0 368 -4 434q-3 55 -21 81t-67 36q-24 6 -74 6q-35 0 -35 19q0 18 43 18q29 0 64 -0.5t64 -1.5t53.5 -2t39.5 -2h15q6 0 96 3t137 3q43 0 43 -18q0 -19 -36 -19q-23 0 -60 -6q-40 -7 -56.5 -34t-19.5 -83
q-4 -66 -4 -434v-219q0 -98 -6.5 -174t-25.5 -161.5t-59.5 -156.5t-102.5 -124q-99 -86 -204 -117t-222 -31q-55 0 -99 3.5t-110.5 16t-129.5 43t-116 78.5q-182 164 -182 543z" />
    <glyph glyph-name="V" unicode="V" horiz-adv-x="1482" 
d="M664 90l-517 1251q-34 81 -65 110.5t-90 45.5q-31 8 -80 8q-25 0 -25 19q0 18 54 18q59 0 162.5 -3t134.5 -3q19 0 106.5 3t144.5 3q48 0 48 -18q0 -19 -31 -19q-61 0 -80 -14q-20 -14 -20 -43q0 -38 47 -158l352 -930h8q33 84 127.5 320.5t175 438.5t101.5 261
q18 49 18 76q0 30 -27 39q-31 10 -82 10q-34 0 -34 17q0 20 57 20q60 0 135.5 -3t79.5 -3q14 0 86 3t106 3q43 0 43 -18q0 -19 -32 -19q-65 0 -101 -24q-48 -32 -112 -185q-46 -111 -128 -292t-118 -263q-72 -163 -162.5 -372t-109.5 -252q-53 -120 -68 -137
q-12 -15 -27 -15q-18 0 -31.5 22t-42.5 95q-2 5 -3 8z" />
    <glyph glyph-name="W" unicode="W" horiz-adv-x="2222" 
d="M588 41l-434 1300q-40 121 -76 146q-30 18 -82 18q-33 0 -33 19q0 18 45 18q47 0 102 -1.5t93 -3t43 -1.5t37.5 1.5t85 3t104.5 1.5q43 0 43 -18q0 -19 -37 -19t-51 -8q-22 -10 -22 -45q0 -22 45 -188q23 -91 124.5 -425.5t137.5 -445.5h6l397 1067q26 74 51 74
q21 0 53 -80q5 -10 7 -16l426 -1030h6q28 104 272 917q21 71 21 119q0 61 -99 61q-34 0 -34 19q0 18 47 18q48 0 97 -1.5t80 -3t36 -1.5l65 3q64 3 105 3q37 0 37 -16q0 -21 -29 -21q-43 0 -72 -10q-10 -4 -19 -11t-17.5 -20t-15 -24.5t-15.5 -33.5t-14 -36.5t-16 -44.5
t-17 -47q-128 -352 -410 -1217q-19 -59 -29.5 -77.5t-29.5 -18.5q-14 0 -27 20.5t-37 80.5l-426 1026h-4q-312 -833 -399 -1018q-41 -87 -53 -100q-9 -9 -21 -9q-14 0 -23 16t-24 60z" />
    <glyph glyph-name="X" unicode="X" horiz-adv-x="1458" 
d="M1180 1333l-336 -483q23 -35 221 -359.5t227 -361.5q27 -35 53.5 -54.5t65.5 -31.5q42 -12 78 -12q27 0 27 -17q0 -20 -39 -20h-62q-210 0 -368 4q-40 2 -55 6t-15 14q0 17 29 23q9 2 11 14.5t-7 32.5q-186 332 -324 557l-303 -489q-32 -53 -29 -86q1 -13 12.5 -22.5
t26.5 -12.5q24 -4 47 -4q10 0 17.5 -5t7.5 -14q0 -18 -41 -18h-37q-1 0 -81.5 3t-110.5 3q-20 0 -88 -3t-84 -3h-35q-31 0 -31 18q0 19 29 19q36 0 75 10q43 12 78.5 45t89.5 109l392 559l-353 583q-38 64 -77.5 100.5t-92.5 53.5q-46 14 -86 14q-20 0 -20 21q0 16 41 16
q19 0 138 -3t173 -3q9 0 92 3t127 3q41 0 41 -18q0 -19 -31 -19q-34 0 -55 -8q-24 -8 -24 -33q0 -21 20 -59q39 -73 83.5 -150.5t98 -168.5t78.5 -134q259 394 279 432q22 40 22 78q0 11 -10 22t-25 15q-20 6 -65 6q-25 0 -25 19q0 18 43 18q45 0 118 -3t87 -3q16 0 87.5 3
t113.5 3q37 0 37 -18q0 -19 -33 -19q-31 0 -74 -12q-32 -8 -63.5 -44t-85.5 -116z" />
    <glyph glyph-name="Y" unicode="Y" horiz-adv-x="1372" 
d="M565 356v168q0 52 -7 93t-15 63t-25 59q-11 26 -159.5 269.5t-200.5 320.5q-74 110 -142 150q-50 26 -86 26q-30 0 -30 19q0 18 39 18q15 0 117.5 -3t140.5 -3q15 0 91 3t128 3q30 0 30 -18q0 -8 -8.5 -12t-32.5 -10q-1 0 -2 -0.5t-2 -0.5q-13 -3 -20.5 -13.5t-7.5 -23.5
q0 -19 24 -69q32 -67 348 -613q10 25 152 279.5t156 284.5q28 63 28 106q0 41 -43 51q-37 8 -37 21q0 18 35 18t100 -3t93 -3q23 0 111.5 3t107.5 3q37 0 37 -16q0 -21 -39 -21q-44 0 -90 -24q-30 -14 -51.5 -34.5t-59.5 -66.5q-50 -60 -206 -321.5t-185 -329.5
q-15 -35 -22 -73.5t-8 -62.5t-1 -69v-168q0 -118 6 -204q7 -103 84 -113q58 -8 103 -8q33 0 33 -17q0 -20 -43 -20q-74 0 -185 3t-129 3q-22 0 -118.5 -3t-137.5 -3q-45 0 -45 20q0 17 33 17q36 0 72 8q56 11 63 113q6 86 6 204z" />
    <glyph glyph-name="Z" unicode="Z" horiz-adv-x="1454" 
d="M455 113h503q261 0 322 112q27 49 37 99q6 32 20 32q12 0 16.5 -13t4.5 -50q0 -45 -14 -124t-27 -126q-8 -29 -21.5 -41t-40.5 -12q-162 0 -522.5 5t-576.5 5q-35 0 -35 20q0 16 31 62q109 170 410.5 636t455.5 709h-402q-217 0 -294 -43q-47 -26 -76.5 -72.5
t-34.5 -86.5q-5 -37 -25 -37q-10 0 -13 7.5t-3 27.5q0 45 41 295q5 38 25 38q6 0 29 -6.5t52 -7.5q146 -6 377 -6h625q35 0 35 -16q0 -9 -17 -39q-253 -411 -882 -1368z" />
    <glyph glyph-name="bracketleft" unicode="[" horiz-adv-x="737" 
d="M385 1264v-1241q0 -131 14 -191q55 -27 219 -43q19 -2 27 -6t8 -14q0 -19 -24 -19h-389q-23 0 -28 5t-5 28v1718q0 17 5.5 22t27.5 5h391q24 0 24 -19q0 -17 -34 -20q-164 -16 -222 -43q-14 -60 -14 -182z" />
    <glyph glyph-name="backslash" unicode="\" horiz-adv-x="1110" 
d="M1075 8l-71 -47q-15 -9 -27 12l-940 1526q-12 18 2 25l74 45q16 9 28 -10l934 -1516q15 -26 0 -35z" />
    <glyph glyph-name="bracketright" unicode="]" horiz-adv-x="737" 
d="M352 14v1241q0 131 -14 191q-55 27 -219 43q-19 2 -27 6t-8 14q0 19 25 19h389q23 0 27.5 -5t4.5 -28v-1718q0 -18 -5.5 -22.5t-26.5 -4.5h-392q-24 0 -24 19q0 17 35 20q165 16 221 43q14 60 14 182z" />
    <glyph glyph-name="asciicircum" unicode="^" horiz-adv-x="1124" 
d="M1026 614h-139l-326 762l-325 -762h-140l393 918h144z" />
    <glyph glyph-name="underscore" unicode="_" horiz-adv-x="1024" 
d="M0 -154h1024v-102h-1024v102z" />
    <glyph glyph-name="grave" unicode="`" horiz-adv-x="1898" 
d="M1100 1714q0 -14 -23 -14q-20 0 -181.5 68.5t-233.5 101.5q-29 12 -48.5 27t-19.5 24q0 11 27 18q65 20 137 52q32 14 39 14q4 0 7.5 -4.5t10 -17t14.5 -23.5q17 -24 91 -93.5t137 -115.5q7 -5 19 -12.5t18 -13t6 -11.5z" />
    <glyph glyph-name="a" unicode="a" 
d="M797 432h-424q-12 0 -17 -12l-96 -234q-27 -64 -27 -106q0 -25 16 -37t56 -12h27q26 0 26 -19q0 -18 -28 -18q-30 0 -101.5 3t-99.5 3q-5 0 -38.5 -1.5t-81.5 -3t-89 -1.5q-33 0 -33 18q0 19 21 19q8 0 26.5 1t26.5 1q57 8 88 43.5t62 109.5l471 1096q29 70 53 70
q19 0 28.5 -11.5t24.5 -44.5q20 -45 209.5 -490t249.5 -583q25 -56 48 -94t43 -56.5t33.5 -25.5t28.5 -10q40 -6 68 -6q25 0 25 -19q0 -11 -14.5 -14.5t-63.5 -3.5q-194 0 -346 4q-3 0 -9 1q-42 5 -45 13q0 16 23 19q10 2 16 13.5t0 25.5l-139 350q-5 12 -18 12zM410 528
h348q12 0 8 11l-170 442q-5 16 -8 16q-5 0 -10 -16l-175 -440q-3 -6 -0.5 -9.5t7.5 -3.5z" />
    <glyph glyph-name="b" unicode="b" horiz-adv-x="1310" 
d="M295 500v307q0 314 -2 369q-3 44 -19 63t-59 31q-21 6 -72 6q-30 0 -30 18q0 17 41 17q54 0 143.5 -2t99.5 -2q49 0 146.5 2t124.5 2q93 0 164.5 -18.5t111.5 -46t65.5 -64.5t33.5 -68t8 -63q0 -93 -57.5 -171t-145.5 -135q59 -19 114.5 -50.5t106 -77.5t81 -110.5
t30.5 -137.5q0 -72 -29 -138t-85.5 -121t-151 -87.5t-214.5 -32.5q-52 0 -143 6q-122 4 -154 4q-7 0 -42.5 -1t-59.5 -1q-86 -4 -125 -4q-35 0 -35 18q0 19 29 19q39 0 63 6q26 6 37.5 28t16.5 64q8 74 8 371zM528 1198v-420q0 -14 13 -18q24 -6 84 -6q104 0 141 30
q82 65 82 185q0 46 -13.5 91t-40 84t-71 63t-100.5 24q-60 0 -78 -4q-17 -3 -17 -29zM528 662v-396q0 -90 11.5 -122.5t52.5 -49.5q52 -20 129 -20q39 0 75.5 11.5t70.5 38t54.5 76.5t20.5 119q0 75 -39.5 161.5t-130.5 148.5q-62 45 -156 45h-77q-11 0 -11 -12z" />
    <glyph glyph-name="c" unicode="c" horiz-adv-x="1443" 
d="M942 -29q-392 0 -618 189q-226 190 -226 514q0 50 9.5 104.5t31 119.5t65.5 131.5t105 121.5q103 90 241 137t331 47q114 0 262 -18q28 -4 89.5 -15t90.5 -14q27 -3 27 -20q0 -5 -1.5 -16t-3.5 -33t-4 -48q-2 -32 -3.5 -104t-2.5 -84q-3 -43 -24 -43q-19 0 -19 37
q-4 97 -69 162q-48 46 -138.5 74t-210.5 28q-119 0 -198.5 -23t-140.5 -75q-166 -144 -166 -453q0 -119 35 -221.5t92.5 -172.5t131.5 -120t151 -73t151 -23q130 0 199 17.5t120 74.5q51 58 62 117q3 21 7.5 28t14.5 7q9 0 15 -10t6 -21q0 -20 -13.5 -106.5t-25.5 -125.5
q-6 -23 -15 -32.5t-32 -18.5q-97 -39 -326 -39z" />
    <glyph glyph-name="d" unicode="d" horiz-adv-x="1701" 
d="M295 500v307q0 314 -2 369q-3 44 -19 63t-59 31q-21 6 -72 6q-30 0 -30 18q0 17 41 17q52 0 146 -2t114 -2q21 0 126.5 2t166.5 2q66 0 102 -0.5t104.5 -4t113 -11t107 -22t109 -35t97.5 -53t92 -73.5q170 -170 170 -442q0 -153 -55.5 -277.5t-141.5 -208.5
q-35 -35 -84 -67t-122.5 -65t-176.5 -52.5t-221 -19.5q-35 0 -215 10q-120 10 -183 10q-7 0 -42.5 -1t-59.5 -1q-86 -4 -125 -4q-35 0 -35 18q0 19 29 19q39 0 63 6q26 6 37.5 28t16.5 64q8 74 8 371zM537 834v-220q0 -282 4 -352q5 -103 20 -123q20 -29 79.5 -49t156.5 -20
q128 0 221 26.5t172 91.5q153 126 153 433q0 152 -48.5 262.5t-118.5 171.5q-187 166 -504 166q-88 0 -111 -13q-22 -8 -22 -34q-2 -59 -2 -340z" />
    <glyph glyph-name="e" unicode="e" horiz-adv-x="1179" 
d="M295 500v307q0 314 -2 369q-3 44 -19 63t-59 31q-21 6 -72 6q-30 0 -30 18q0 17 41 17q52 0 146 -2t114 -2q7 0 135.5 -0.5t234 -0.5t121.5 1q10 1 76 10q4 1 14.5 4.5t14.5 3.5q12 0 12 -16q0 -4 -2.5 -15.5t-6 -37t-5.5 -60.5q0 -1 -4.5 -52t-6.5 -63q-7 -28 -20 -28
q-14 0 -14 22q0 38 -13 64q-9 19 -17.5 29t-33.5 20t-68 14q-62 8 -282 8q-12 0 -12 -16v-430q0 -19 12 -19q264 0 315 5q69 6 86 26q5 4 11.5 11t10 9.5t7.5 2.5q14 0 14 -19q0 -4 -14 -127q-8 -70 -8 -116q0 -39 -19 -39q-16 0 -16 14q0 4 -2 27t-4 36q-17 61 -101 68
q-66 8 -282 8q-10 0 -10 -18v-139q0 -17 -0.5 -77t-0.5 -109t1 -72q3 -88 53 -117t190 -29q116 0 170 23q33 15 51 44.5t27 84.5q6 26 21 26q16 0 16 -41q0 -30 -9 -98t-16 -94q-9 -32 -25 -38.5t-71 -6.5q-200 0 -332 6q-176 4 -209 4q-7 0 -42.5 -1t-59.5 -1
q-86 -4 -125 -4q-35 0 -35 18q0 19 29 19q39 0 63 6q26 6 37.5 28t16.5 64q8 74 8 371z" />
    <glyph glyph-name="f" unicode="f" horiz-adv-x="1161" 
d="M537 637v-143q0 -272 10 -365q5 -43 19.5 -64.5t51.5 -27.5q38 -6 89 -6q30 0 30 -19q0 -18 -39 -18q-66 0 -169.5 3t-118.5 3q-21 0 -107 -3t-123 -3t-37 18q0 19 27 19q39 0 63 6q26 6 37.5 28t16.5 64q8 74 8 371v307q0 314 -2 369q-3 44 -19 64t-59 30q-21 6 -72 6
q-30 0 -30 18q0 17 43 17q51 0 144.5 -2t113.5 -2h512q51 3 73 8q4 1 13.5 5.5t15.5 4.5q4 0 8 -5t4 -11q0 -5 -2 -14.5t-5.5 -27t-6.5 -36.5q-1 -9 -4 -70t-4 -71q-5 -35 -19 -35q-22 0 -22 28q0 45 -10 66q-24 50 -115 53l-299 6q-16 0 -16 -24v-422q0 -17 12 -17l252 3
q55 0 82 2q57 3 75 30q2 2 5 5.5t5 5.5t4.5 4t5 3t5.5 1q10 0 10 -17q0 -4 -2 -19.5t-5.5 -42.5t-6.5 -50q-6 -53 -6 -127q0 -39 -21 -39q-16 0 -16 24t-12 54q-19 58 -86 63q-67 6 -289 6q-12 0 -12 -14z" />
    <glyph glyph-name="g" unicode="g" horiz-adv-x="1603" 
d="M1395 303v-192q0 -36 -3 -44.5t-20 -17.5q-160 -78 -440 -78q-136 0 -257 24.5t-227.5 77.5t-183.5 131.5t-121.5 193.5t-44.5 255q0 196 89.5 343.5t226.5 226.5q117 68 231.5 90t253.5 22q83 0 183 -10t137 -18q107 -17 143 -19q24 -2 24 -20q0 -3 -3 -30.5t-6 -93.5
t-3 -163q0 -39 -24 -39q-16 0 -19 23q-9 89 -61 143q-49 51 -151.5 92t-239.5 41q-49 0 -81 -2t-81 -11t-96 -31.5t-91 -57.5q-165 -135 -165 -424q0 -187 75.5 -333.5t218.5 -230t332 -83.5q84 0 127 18q35 16 35 61v160q0 152 -2 205q-1 43 -17.5 62.5t-60.5 31.5
q-21 6 -69 6q-12 0 -20.5 5.5t-8.5 13.5q0 16 39 16q52 0 153.5 -2t122.5 -2q28 0 104.5 2t106.5 2q20 0 28.5 -3t8.5 -13q0 -8 -6.5 -13.5t-15.5 -5.5q-20 0 -50 -6q-37 -6 -52 -27t-17 -67q-2 -53 -2 -209z" />
    <glyph glyph-name="h" unicode="h" horiz-adv-x="1775" 
d="M549 743h680q10 0 10 13v37q0 273 -4 383q-3 44 -19 63t-59 31q-21 6 -70 6q-30 0 -30 18q0 17 39 17q54 0 153.5 -2t116.5 -2q18 0 105.5 2t125.5 2q39 0 39 -17q0 -18 -32 -18q-20 0 -54 -6q-35 -6 -48.5 -26.5t-16.5 -67.5q-4 -55 -4 -369v-307q0 -297 8 -373
q5 -42 19.5 -63t52.5 -27q37 -6 92 -6q13 0 20.5 -6t7.5 -13q0 -18 -36 -18q-67 0 -168 3t-117 3q-17 0 -108 -3t-130 -3t-39 18q0 7 7.5 13t21.5 6q42 0 66 6q26 6 37 27.5t16 64.5q8 74 8 367v133q0 10 -10 10h-680q-12 0 -12 -10v-133q0 -274 10 -369q5 -42 18.5 -63
t50.5 -27q38 -6 93 -6q14 0 21 -6t7 -13q0 -18 -37 -18q-67 0 -171 3t-121 3t-104.5 -3t-127.5 -3q-35 0 -35 18q0 19 29 19q39 0 63 6q26 6 37.5 28t16.5 64q8 74 8 371v307q0 314 -2 369q-3 44 -19 63t-59 31q-21 6 -72 6q-30 0 -30 18q0 17 39 17q54 0 149.5 -2t114.5 -2
q18 0 108.5 2t130.5 2q37 0 37 -17q0 -18 -33 -18q-21 0 -51 -6q-36 -6 -50 -26.5t-17 -67.5q-4 -55 -4 -383v-37q0 -13 12 -13z" />
    <glyph glyph-name="i" unicode="i" horiz-adv-x="833" 
d="M295 500v307q0 314 -2 369q-3 43 -17 63t-45 29q-27 8 -65 8q-29 0 -29 20q0 15 43 15q36 0 127.5 -2t114.5 -2q19 0 106 2t125 2q37 0 37 -15q0 -20 -28 -20q-24 0 -54 -6q-36 -6 -50 -26.5t-17 -67.5q-4 -55 -4 -369v-307q0 -307 8 -381q5 -39 19.5 -57.5t51.5 -24.5
q38 -6 93 -6q14 0 21 -6t7 -13q0 -18 -35 -18q-68 0 -171 3t-119 3q-17 0 -106.5 -3t-129.5 -3q-35 0 -35 18q0 19 29 19q39 0 63 6q27 6 38 25t16 59q8 72 8 379z" />
    <glyph glyph-name="j" unicode="j" horiz-adv-x="763" 
d="M295 307v500q0 314 -2 369q-3 44 -19 63t-59 31q-21 6 -72 6q-30 0 -30 18q0 17 41 17q53 0 153.5 -2t118.5 -2t103.5 2t125.5 2q37 0 37 -17q0 -18 -33 -18q-21 0 -51 -6q-36 -6 -50 -26.5t-17 -67.5q-4 -55 -4 -369v-324q0 -35 3 -117t3 -128q0 -194 -43 -308
q-30 -82 -113.5 -169.5t-210.5 -161.5q-57 -30 -90 -45q-18 -9 -37 -9q-6 0 -10 5.5t-4 11.5q0 12 39 30q35 17 86 68q29 28 50 60.5t35.5 62t24 78.5t15 83t7.5 102.5t2.5 111.5t0.5 134v15z" />
    <glyph glyph-name="k" unicode="k" horiz-adv-x="1402" 
d="M530 807v-78h9q29 31 188.5 191.5t187.5 191.5q69 77 81 98q10 18 10 31q0 29 -25 35t-25 18q0 17 29 17q18 0 89 -2t97 -2q27 0 105 2t106 2q31 0 31 -17q0 -18 -27 -18q-46 0 -104 -21q-86 -30 -190 -129q-78 -72 -211.5 -200.5t-169.5 -169.5q43 -56 234 -257
t253 -259q14 -12 46 -42t49 -45t44.5 -37t53 -37t53.5 -26q51 -22 110 -22q10 0 17.5 -5.5t7.5 -13.5q0 -18 -43 -18h-158q-86 0 -125 4q-68 6 -119 32t-114 81q-53 46 -240 259.5t-223 262.5l-18 24h-9v-157q0 -278 5 -373q6 -80 65 -90q38 -6 88 -6q10 0 17.5 -6.5
t7.5 -12.5q0 -18 -35 -18q-57 0 -158 3t-117 3q-17 0 -102 -3t-125 -3q-35 0 -35 18q0 19 29 19q39 0 63 6q26 6 37.5 28t16.5 64q8 74 8 371v307q0 314 -2 369q-3 44 -19 63t-59 31q-21 6 -72 6q-30 0 -30 18q0 17 41 17q53 0 145 -2t107 -2q20 0 110 2t121 2q39 0 39 -17
q0 -18 -25 -18q-17 0 -51 -6q-36 -6 -50.5 -26.5t-17.5 -67.5q-2 -55 -2 -369z" />
    <glyph glyph-name="l" unicode="l" horiz-adv-x="1130" 
d="M537 807v-307q0 -110 0.5 -151.5t4 -99t11.5 -81t22 -35.5q42 -37 240 -37q87 0 133.5 8.5t77.5 40.5q16 16 29 47t16 58q3 26 21 26q16 0 16 -38q0 -21 -9 -94t-18 -107q-9 -31 -27.5 -39t-86.5 -8q-189 0 -324 6q-180 4 -240 4q-7 0 -42.5 -1t-59.5 -1q-86 -4 -125 -4
q-35 0 -35 18q0 19 29 19q39 0 63 6q26 6 37.5 28t16.5 64q8 74 8 371v307q0 314 -2 369q-3 44 -19 63t-59 31q-21 6 -59 6q-31 0 -31 18q0 17 39 17q46 0 137 -2t111 -2q18 0 120 2t140 2q39 0 39 -17q0 -18 -33 -18q-40 0 -70 -6q-36 -6 -50 -26.5t-17 -67.5
q-4 -55 -4 -369z" />
    <glyph glyph-name="m" unicode="m" horiz-adv-x="1890" 
d="M184 168l178 1137q3 21 13.5 33t21.5 12q14 0 26 -11t30 -45l483 -970l483 983q21 43 47 43q12 0 24.5 -15t16.5 -41l164 -1075q13 -86 30.5 -123t57.5 -49q58 -16 103 -16q28 0 28 -17q0 -20 -47 -20q-157 0 -373 12q-53 2 -53 21q0 11 21 18q16 7 8 74l-100 753h-7
l-387 -778q-32 -63 -44 -80.5t-27 -17.5q-16 0 -31 20.5t-41 67.5q-190 354 -207 395q-13 30 -180 373h-6l-86 -680q-6 -47 -6 -82q0 -40 55 -51q41 -8 63 -8q12 0 20.5 -5.5t8.5 -11.5q0 -20 -43 -20t-111 3t-79 3q-15 0 -81.5 -3t-97.5 -3q-32 0 -32 20q0 7 7.5 12t20.5 5
q27 0 56 4q55 7 73 133z" />
    <glyph glyph-name="n" unicode="n" horiz-adv-x="1722" 
d="M387 942l21 -711q3 -96 18 -137t43 -51q37 -12 94 -12q31 0 31 -19q0 -18 -41 -18q-69 0 -148.5 3t-85.5 3q-5 0 -34.5 -1.5t-74.5 -3t-85 -1.5q-41 0 -41 18q0 8 8.5 13.5t20.5 5.5q49 0 82 8q34 9 43.5 50t11.5 161l16 1032q0 26 8.5 42.5t22.5 16.5q10 0 22.5 -8
t21.5 -16t27 -26l7 -7q1 -1 59.5 -60.5t128 -129.5t173.5 -173.5t194 -191.5q52 -51 145 -145t163 -165t81 -81h8l-18 774q-1 77 -15 109.5t-47 44.5q-27 10 -94 10q-29 0 -29 18q0 17 45 17q54 0 135.5 -2t94.5 -2q1 0 62 2t114 2q41 0 41 -17q0 -18 -31 -18q-32 0 -55 -6
q-37 -11 -51 -41t-15 -103l-20 -1097q0 -27 -8.5 -41.5t-20.5 -14.5q-37 0 -74 37q-151 139 -526 502q-86 82 -184 183t-162 168.5t-76 78.5h-6z" />
    <glyph glyph-name="o" unicode="o" horiz-adv-x="1693" 
d="M836 -29q-151 0 -277 41.5t-209.5 109.5t-141.5 157.5t-84 183.5t-26 190q0 93 25.5 185.5t84 183t143.5 159.5t215 111.5t288 42.5q341 0 539 -175.5t198 -475.5q0 -149 -53 -279.5t-149.5 -226.5t-239 -151.5t-313.5 -55.5zM909 66q32 0 63.5 4.5t74 19t79 38.5
t74 66.5t64 99t43 141t16.5 186.5q0 141 -40.5 259t-111 197t-166 122.5t-204.5 43.5q-65 0 -123 -14t-117 -51.5t-101 -95.5t-68.5 -154.5t-26.5 -220.5q0 -180 64 -324.5t189 -230.5t291 -86z" />
    <glyph glyph-name="p" unicode="p" horiz-adv-x="1220" 
d="M295 500v307q0 314 -2 369q-3 44 -19 63t-59 31q-21 6 -72 6q-30 0 -30 18q0 17 41 17q52 0 146 -2t114 -2q36 0 146.5 2t152.5 2q221 0 336 -99q35 -34 62.5 -89t27.5 -119q0 -183 -130 -302.5t-323 -119.5q-45 0 -53 2q-9 0 -16 5t-7 13q0 23 60 23q38 0 80 19.5t78 54
t59.5 89.5t23.5 119q0 167 -106 258q-76 66 -180 66q-57 0 -78 -8q-15 -6 -15 -33v-690q0 -288 9 -373q5 -42 18.5 -63t50.5 -27q40 -6 92 -6q14 0 21.5 -6t7.5 -13q0 -18 -33 -18q-70 0 -175.5 3t-119.5 3q-17 0 -102 -3t-125 -3q-35 0 -35 18q0 19 29 19q39 0 63 6
q26 6 37.5 28t16.5 64q8 74 8 371z" />
    <glyph glyph-name="q" unicode="q" horiz-adv-x="1691" 
d="M1399 -152l-281 166q-49 -19 -131 -31t-153 -12q-153 0 -279 42t-209 111t-140.5 160t-82.5 186t-25 192q0 89 26.5 180t85.5 180t144 158t212.5 112t279.5 43q216 0 383 -79t261.5 -229.5t94.5 -350.5q0 -88 -22 -170.5t-55 -142.5t-77 -114t-81 -87t-74 -58l354 -172
q424 -206 737 -206q207 0 353 55q20 8 26 8t11.5 -5t5.5 -11q0 -11 -23 -23q-293 -137 -577 -137q-207 0 -374 51.5t-390 183.5zM907 66q36 0 69 4.5t75 19t77.5 39t71 67.5t60 100.5t40 143t15.5 189.5q0 150 -44.5 270.5t-118 193.5t-162.5 111.5t-185 38.5
q-92 0 -168.5 -29.5t-138.5 -91.5t-96.5 -169t-34.5 -251q0 -151 43.5 -273.5t118 -200.5t171.5 -120t207 -42z" />
    <glyph glyph-name="r" unicode="r" horiz-adv-x="1404" 
d="M295 500v307q0 314 -2 369q-3 44 -19 63t-59 31q-21 6 -72 6q-30 0 -30 18q0 17 41 17q54 0 144 -2t101 -2q31 0 142.5 2t138.5 2q229 0 342 -74q48 -33 87.5 -97t39.5 -143q0 -97 -59 -188t-191 -197q108 -133 155.5 -191t118 -139t121.5 -132q35 -35 66.5 -58.5t59 -35
t37.5 -14.5t30 -7q18 -4 43 -4q10 0 16 -6t6 -13q0 -18 -34 -18h-172q-131 0 -197 35q-55 27 -109 85.5t-137 170.5q-39 51 -99.5 138t-70.5 99q-13 13 -33 13l-161 4q-15 0 -15 -15v-24q0 -269 11 -371q5 -44 18 -65t51 -27q40 -6 88 -6q10 0 16.5 -6t6.5 -13
q0 -18 -37 -18q-62 0 -169.5 3t-111.5 3q-13 0 -96.5 -3t-124.5 -3q-35 0 -35 18q0 19 29 19q39 0 63 6q26 6 37.5 28t16.5 64q8 74 8 371zM524 1190v-518q0 -22 17 -31q52 -16 137 -16q54 0 79 5.5t48 22.5q117 83 117 258q0 70 -18.5 126t-47.5 89.5t-67 55.5t-72.5 30.5
t-69.5 8.5q-75 0 -106 -7q-17 -6 -17 -24z" />
    <glyph glyph-name="s" unicode="s" horiz-adv-x="1105" 
d="M489 -29q-192 0 -292 45q-22 9 -28.5 20t-6.5 40q0 86 10 231q0 45 23 45q18 0 18 -28q0 -41 16 -91q27 -89 108.5 -130.5t178.5 -41.5q114 0 182 63.5t68 158.5q0 68 -34.5 124.5t-143.5 120.5l-105 62q-155 91 -218.5 183.5t-63.5 211.5q0 156 131 253t323 97
q146 0 256 -28q25 -6 25 -23q0 -6 -1.5 -30.5t-3 -71.5t-1.5 -107q0 -55 -23 -55q-18 0 -18 31q0 19 -11 52t-36 62q-67 82 -201 82q-102 0 -174 -50t-72 -136q0 -64 38.5 -115.5t152.5 -114.5l73 -40q171 -94 241.5 -195.5t70.5 -226.5q0 -100 -42 -179.5t-138 -146.5
q-102 -72 -302 -72z" />
    <glyph glyph-name="t" unicode="t" horiz-adv-x="1296" 
d="M535 500v704l-269 -6q-79 -2 -116.5 -13t-57.5 -40q-20 -28 -31 -60q-6 -22 -20 -22q-16 0 -16 29q0 19 16.5 107t21.5 104q6 32 21 32q5 0 29 -8.5t49 -11.5q71 -8 180 -8h731q69 0 123 8q12 2 23.5 4t17.5 3t8 1q15 0 15 -37q0 -18 -2.5 -103t-2.5 -108q-3 -28 -16 -28
q-10 0 -14 7t-6 27l-2 19q-4 40 -53 69.5t-160 30.5l-228 4v-704q0 -278 10 -373q5 -42 19 -63t51 -27q38 -6 92 -6q14 0 21.5 -6t7.5 -13q0 -18 -35 -18q-68 0 -171 3t-120 3t-106 -3t-129 -3q-35 0 -35 18q0 19 29 19q42 0 63 6q26 6 37 27.5t16 64.5q9 83 9 371z" />
    <glyph glyph-name="u" unicode="u" horiz-adv-x="1556" 
d="M217 551v256q0 341 -2 369q-3 45 -18.5 63.5t-59.5 30.5q-21 6 -69 6q-31 0 -31 18q0 17 39 17q53 0 151 -2t119 -2q20 0 108 2t124 2q38 0 38 -17q0 -18 -28 -18q-18 0 -53 -6t-49 -26.5t-17 -67.5q-4 -55 -4 -369v-244q0 -181 33 -273.5t104 -148.5q88 -69 227 -69
q147 0 242 92q36 34 58.5 78.5t32 105t12 110t2.5 130.5v219q0 231 -5 369q-3 45 -18 63.5t-57 30.5q-21 6 -66 6q-31 0 -31 18q0 17 37 17q26 0 57.5 -0.5t58 -1t49 -1t36.5 -0.5l14 -1q4 0 87 2t124 2q37 0 37 -17q0 -18 -31 -18q-18 0 -53 -6q-36 -6 -49 -26t-16 -68
q-4 -110 -4 -369v-186q0 -84 -6 -149t-22.5 -137.5t-52.5 -133t-91 -105.5q-150 -125 -381 -125q-276 0 -412 119q-164 143 -164 461z" />
    <glyph glyph-name="v" unicode="v" horiz-adv-x="1304" 
d="M580 76l-455 1065q-30 69 -55.5 92.5t-77.5 36.5q-27 6 -70 6q-20 0 -20 18q0 17 45 17q52 0 143.5 -2t118.5 -2q17 0 97.5 2t131.5 2q43 0 43 -17q0 -18 -28 -18q-53 0 -70 -12q-18 -12 -18 -35q0 -31 41 -131l303 -781h6q59 136 189.5 453.5t162.5 403.5q16 46 16 63
q0 22 -24 31q-27 8 -72 8q-31 0 -31 18q0 17 52 17q53 0 121 -2t71 -2q12 0 76 2t94 2q37 0 37 -17q0 -18 -29 -18q-60 0 -88 -21q-20 -14 -41 -45.5t-53 -107.5q-32 -73 -62.5 -139.5t-74.5 -159.5t-80 -172q-47 -104 -101 -224t-88 -195.5t-51 -113.5q-35 -77 -51.5 -102
t-34.5 -25t-32 20.5t-41 84.5z" />
    <glyph glyph-name="w" unicode="w" horiz-adv-x="1955" 
d="M510 35l-381 1106q-2 6 -6.5 18t-6.5 17.5t-5.5 15.5t-5.5 14.5t-5.5 12.5t-6 12t-6 9.5t-6.5 9t-7 7t-8 5.5q-21 14 -70 14q-29 0 -29 18q0 17 41 17q40 0 88.5 -1t82 -2t38.5 -1q4 0 35.5 1t79.5 2t94 1q39 0 39 -17q0 -18 -33 -18q-26 0 -45 -8q-18 -7 -18 -35
q0 -24 39 -160q21 -80 109.5 -366t111.5 -355h6l344 889q24 64 53 64q26 0 60 -82l360 -858h6q16 44 58.5 182.5t100 327t77.5 251.5q18 61 18 101q0 24 -19 36.5t-69 12.5q-12 0 -21.5 5.5t-9.5 12.5q0 17 43 17q41 0 85.5 -1t73.5 -2t34 -1l57 2q57 2 92 2q33 0 33 -15
q0 -20 -24 -20q-37 0 -64 -8q-7 -3 -13.5 -7t-12.5 -11.5t-10.5 -13.5t-10.5 -18.5t-10 -20t-10.5 -24.5t-10 -26t-11 -30t-11.5 -32q-66 -171 -357 -1032q-16 -49 -27 -65.5t-30 -16.5q-18 0 -29.5 16.5t-33.5 67.5l-367 858h-4q-8 -19 -82.5 -206t-152.5 -380t-111 -264
q-27 -58 -39 -75t-31 -17q-16 0 -26 14t-23 50z" />
    <glyph glyph-name="x" unicode="x" horiz-adv-x="1300" 
d="M1057 1133l-299 -408q17 -26 113.5 -176.5t182 -282t105.5 -155.5q42 -53 98 -70q31 -10 70 -10q9 0 16 -6t7 -13q0 -18 -35 -18h-53q-187 0 -334 4q-64 3 -64 18q0 17 25 23q8 2 11 10.5t-5 26.5q-40 65 -139.5 228.5t-145.5 238.5l-264 -410q-30 -48 -27 -74
q1 -12 11.5 -19t23.5 -7q4 0 18 -1t21 -1q8 0 15.5 -7t7.5 -14q0 -16 -37 -16h-33q-1 0 -74 3t-100 3q-18 0 -78 -3t-74 -3h-30q-27 0 -27 16q0 8 7.5 14.5t17.5 6.5q29 0 65 8q39 10 68 36t76 91l352 475l-318 496q-35 55 -67 83.5t-78 43.5q-44 12 -76 12q-18 0 -18 20
q0 15 37 15q16 0 121 -2t153 -2q7 0 85.5 2t117.5 2q37 0 37 -17q0 -18 -29 -18q-22 0 -43 -6q-25 -6 -25 -25q0 -17 19 -51q84 -146 225 -379q208 306 244 363q20 36 20 63q0 9 -8.5 17.5t-21.5 11.5q-18 6 -58 6q-22 0 -22 18q0 17 39 17t107 -2t81 -2t75.5 2t100.5 2
q33 0 33 -17q0 -18 -29 -18q-23 0 -65 -10q-15 -4 -28.5 -13t-32 -30.5t-29.5 -36.5t-39 -53z" />
    <glyph glyph-name="y" unicode="y" horiz-adv-x="1208" 
d="M489 303v143q0 65 -9 102t-31 81q-9 19 -140 223t-182 278q-71 99 -117 123q-44 23 -76 23q-26 0 -26 18q0 17 35 17q12 0 102 -2t123 -2q14 0 86.5 2t118.5 2q26 0 26 -17q0 -3 -0.5 -5t-2.5 -4t-4 -3t-6 -2.5t-7 -2t-9.5 -2.5t-11.5 -3q-24 -7 -24 -27t22 -59
q16 -26 149.5 -255.5t149.5 -254.5q1 2 127 218.5t142 248.5q26 56 26 92q0 31 -39 39q-2 0 -6 1l-6 1.5t-5 1.5t-5 2t-4 2.5t-3 3t-2 3.5t-1 5q0 17 30 17t90 -2t86 -2q20 0 98 2t95 2q33 0 33 -15q0 -20 -35 -20q-31 0 -78 -21q-28 -13 -45.5 -28.5t-48.5 -52.5
q-43 -51 -184 -276t-166 -282q-6 -13 -10 -26t-6.5 -27t-4 -23.5t-2 -25.5t-0.5 -23v-25.5v-23.5v-139q0 -100 4 -174q3 -41 19.5 -63.5t54.5 -28.5q41 -6 90 -6q14 0 22.5 -6t8.5 -13q0 -18 -39 -18q-65 0 -166 3t-117 3q-20 0 -108 -3t-125 -3q-39 0 -39 18q0 7 7.5 13
t21.5 6q39 0 63 6q49 11 55 92q6 74 6 174z" />
    <glyph glyph-name="z" unicode="z" horiz-adv-x="1280" 
d="M412 104h432q129 0 190.5 23.5t87.5 67.5q26 50 33 79q6 29 21 29q10 0 14 -11t4 -42q0 -39 -12 -106.5t-23 -106.5q-8 -24 -19.5 -34.5t-35.5 -10.5q-142 0 -461 4t-510 4q-31 0 -31 18q0 16 23 52q444 669 758 1134h-340q-67 0 -99 -1t-81.5 -8t-75.5 -21
q-42 -23 -68 -61.5t-29 -72.5q-5 -30 -22 -30q-18 0 -18 28q0 61 36 252q3 33 21 33q5 0 25.5 -5.5t46.5 -6.5q115 -4 331 -4h555q31 0 31 -15q0 -12 -10 -32q-316 -494 -774 -1156z" />
    <glyph glyph-name="braceleft" unicode="{" horiz-adv-x="737" 
d="M279 719v-2q45 -16 86 -59t57 -101q6 -22 10 -44.5t6 -39.5t3 -48t1 -47v-60.5v-67.5q0 -234 44.5 -339.5t109.5 -119.5q30 -8 39.5 -13t9.5 -14t-13.5 -11.5t-60.5 -2.5q-44 0 -106 33.5t-113 103.5q-49 69 -76.5 169.5t-27.5 297.5q0 34 8 116t8 103q0 42 -14 62
q-16 24 -44 34t-79 17q-18 3 -23.5 7t-5.5 14q0 12 6 16t23 6q3 0 19.5 0.5t25 1.5t23 4t26.5 9.5t23 15.5q24 19 24 100q0 41 -10 121t-10 102q0 144 32.5 222t98.5 139q45 41 105 62.5t118 21.5q41 0 41 -15q0 -8 -7.5 -11.5t-29.5 -6.5q-21 -3 -46.5 -19t-53 -44t-46 -78
t-18.5 -111q0 -38 0.5 -99t0.5 -88.5t-1.5 -66t-5 -65t-10.5 -50.5q-13 -52 -58 -97t-89 -58z" />
    <glyph glyph-name="bar" unicode="|" horiz-adv-x="1024" 
d="M575 -512h-124v2048h124v-2048z" />
    <glyph glyph-name="braceright" unicode="}" horiz-adv-x="737" 
d="M459 717q-44 15 -89.5 60.5t-58.5 96.5q-7 24 -10.5 50.5t-5 65t-1.5 66t0.5 88.5t0.5 99q0 61 -18.5 111t-46 78t-53 44t-46.5 19q-22 3 -29.5 6.5t-7.5 11.5q0 15 41 15q58 0 118 -21.5t105 -62.5q66 -61 98.5 -139t32.5 -222q0 -22 -10 -102t-10 -121q0 -80 25 -100
q11 -9 22.5 -15.5t26 -9.5t23 -4t25 -1.5t19.5 -0.5q17 -2 23 -6t6 -16q0 -10 -5.5 -14t-23.5 -7q-51 -7 -79 -17t-44 -34q-14 -20 -14 -62q0 -21 8 -103t8 -116q0 -197 -27.5 -297.5t-76.5 -169.5q-51 -70 -113 -103.5t-106 -33.5q-47 0 -60.5 2.5t-13.5 11.5t9.5 14
t39.5 13q65 14 109.5 119.5t44.5 339.5v67.5v60.5t1 47t3 48t6 39.5t10 44.5q16 58 57.5 101t86.5 59z" />
    <glyph glyph-name="asciitilde" unicode="~" horiz-adv-x="1124" 
d="M1049 700q7 -158 -58 -228.5t-172 -70.5q-58 0 -119 19.5t-159 68.5q-60 29 -91 43t-73.5 27.5t-73.5 13.5q-104 0 -110 -170h-117q-4 148 61.5 222.5t175.5 74.5q59 0 114.5 -19t160.5 -69q62 -29 93.5 -42.5t74 -26.5t73.5 -13q49 0 75 44.5t28 125.5h117z" />
    <glyph glyph-name="uni00A0" unicode="&#xa0;" horiz-adv-x="614" 
 />
    <glyph glyph-name="exclamdown" unicode="&#xa1;" horiz-adv-x="655" 
d="M332 954q16 0 21.5 -16t8.5 -57q6 -73 27.5 -303.5t24.5 -253.5q3 -51 17 -185.5t26 -183.5q3 -11 9.5 -29t6.5 -24q0 -16 -10 -33q-62 -78 -184 -129q-47 -21 -78 -21q-19 0 -19 27q0 6 5 39t13.5 96t14.5 129q1 11 42 430.5t44 448.5q3 36 9 50.5t22 14.5zM346 1325
q55 0 84 -35.5t29 -79.5q0 -43 -29.5 -79.5t-85.5 -36.5q-50 0 -82.5 29.5t-32.5 78.5q0 52 32.5 87.5t84.5 35.5z" />
    <glyph glyph-name="cent" unicode="&#xa2;" horiz-adv-x="1228" 
d="M795 1198l-93 -848q47 -8 86 -8q106 0 167.5 36t88.5 140q8 33 27 33q16 0 16 -25q0 -26 -9 -104.5t-17 -118.5q-3 -17 -9 -23.5t-20 -11.5q-117 -35 -252 -35q-48 0 -92 3l-29 -275q-3 -19 -16 -22l-76 -11q-21 -3 -18 13l37 307q-208 36 -334.5 175t-126.5 355
q0 131 50.5 229.5t109.5 147.5q85 72 185.5 105.5t236.5 33.5l22 205q3 19 21 21l65 8q12 2 18 -1.5t5 -10.5l-29 -222q50 0 126 -13t144 -40q10 -4 12.5 -11t2.5 -32q0 -39 -13 -211q-3 -22 -20 -22q-16 0 -19 22q-5 79 -49 135q-25 30 -77 53t-121 23zM600 373l92 825
q-143 9 -243.5 -99.5t-100.5 -264.5q0 -96 26 -181t66 -140.5t81.5 -91t78.5 -48.5z" />
    <glyph glyph-name="sterling" unicode="&#xa3;" horiz-adv-x="1228" 
d="M827 735h-299l-10 -92q-5 -43 -17.5 -95.5t-36.5 -122t-69 -138t-102 -115.5l4 -14l518 6q154 1 215 38t78 136q5 24 22 24q19 0 19 -32q0 -36 -11.5 -136.5t-27.5 -162.5q-4 -19 -12 -26.5t-33 -11t-84 -3.5q-101 0 -221 6q-156 4 -305 4h-414q-34 0 -47.5 4.5
t-13.5 20.5q0 26 61 41q57 13 98 50.5t66.5 101t40 131.5t26.5 167l27 221h-145q-16 0 -29 -2t-16 -2q-14 0 -7 25l21 59q5 14 31 14h157l17 109q26 170 75 295.5t148 208.5q88 76 169.5 101.5t184.5 25.5q108 0 185 -25q44 -9 55 -10q12 -1 16 -10t4 -33q0 -154 -16 -242
q-3 -28 -21 -28q-20 0 -20 32q-2 34 -15 80.5t-34 71.5q-60 76 -189 76q-111 0 -187 -93t-103 -280l-39 -276h258q24 0 44 2t31.5 4t14.5 2q9 0 13 -6.5t1 -14.5l-24 -69q-6 -17 -52 -17z" />
    <glyph glyph-name="currency" unicode="&#xa4;" horiz-adv-x="1228" 
d="M1096 1073l-164 -147q69 -103 69 -240q0 -156 -71 -252l157 -151l-100 -101l-141 162q-44 -41 -109.5 -63.5t-130.5 -22.5t-129 21.5t-104 58.5l-140 -156l-96 101l152 145q-76 102 -76 246t78 252l-158 147l98 103l144 -158q95 82 235 82h2q143 0 236 -80l147 156z
M840 684q0 111 -63 191.5t-169 80.5h-2q-104 0 -167.5 -79.5t-63.5 -198.5q0 -133 71.5 -205t159.5 -72q94 0 164 71t70 212z" />
    <glyph glyph-name="yen" unicode="&#xa5;" horiz-adv-x="1228" 
d="M713 586v-248q0 -148 2 -193q2 -48 23 -73.5t71 -32.5q44 -6 102 -6q29 0 29 -21q0 -18 -29 -18q-79 0 -188 3t-117 3t-114.5 -3t-184.5 -3q-19 0 -25 3.5t-6 14.5q0 21 27 21q61 0 105 6q50 7 72 32.5t24 73.5q2 45 2 193v248h-332q-15 0 -12 16l18 70q3 12 23 12h291
q-23 46 -99 179.5t-165 285.5t-107 184q-62 110 -129 146q-47 24 -94 24q-27 0 -27 19q0 20 35 20q20 0 113 -3t112 -3q20 0 93.5 3t125.5 3q29 0 29 -20q0 -17 -39 -23q-35 -5 -35 -37q0 -18 23 -69q12 -23 160 -297.5t165 -309.5q42 75 155.5 294t135.5 268q27 64 27 110
q0 29 -51 41q-11 3 -14 4t-9.5 4t-8 6.5t-1.5 8.5q0 20 29 20q42 0 102.5 -3t79.5 -3q12 0 98.5 3t108.5 3q32 0 32 -18q0 -21 -30 -21q-60 0 -95 -18q-8 -3 -15.5 -7.5t-13 -8t-13 -11l-11 -11t-12.5 -14t-12 -14.5t-14 -18t-15 -19q-44 -59 -185 -315.5t-202 -382.5h330
q19 0 16 -20l-14 -62q-4 -16 -27 -16h-313z" />
    <glyph glyph-name="brokenbar" unicode="&#xa6;" horiz-adv-x="1024" 
d="M575 666h-124v716h124v-716zM575 -358h-124v716h124v-716z" />
    <glyph glyph-name="section" unicode="&#xa7;" horiz-adv-x="1220" 
d="M362 975q-59 60 -86.5 118t-27.5 128q0 154 134 251t327 97q140 0 254 -29q24 -6 24 -22q0 -6 -1.5 -30.5t-3 -71.5t-1.5 -107q0 -56 -23 -56q-18 0 -18 31q0 19 -11 52.5t-36 62.5q-67 82 -199 82q-105 0 -180.5 -54t-75.5 -151q0 -61 38 -104t157 -119l74 -47
q188 -119 278 -225t90 -242q0 -90 -57.5 -188.5t-149.5 -157.5q103 -129 103 -244q0 -195 -183 -318q-106 -71 -307 -71q-191 0 -291 45q-22 9 -28 19.5t-6 39.5q0 87 10 232q0 45 22 45q19 0 19 -29q0 -40 16 -90q27 -89 108.5 -130.5t178.5 -41.5q114 0 187 62t73 151
q0 85 -37 137.5t-151 130.5l-105 72q-89 61 -139.5 100.5t-99.5 92t-70 107.5t-21 122q0 79 38.5 155.5t85 123.5t91.5 71zM442 907q-54 -34 -87 -79t-33 -121q0 -55 28 -99t63.5 -71.5t127.5 -89.5q8 -6 12.5 -9t11.5 -7.5t13 -8.5l73 -49q116 -76 146 -105q96 80 96 199
q0 29 -5.5 53.5t-20 47t-27 39t-40.5 39t-46 35.5t-56.5 40t-60.5 43l-105 76q-48 33 -90 67z" />
    <glyph glyph-name="dieresis" unicode="&#xa8;" horiz-adv-x="1898" 
d="M1163 1700q-46 0 -69 29.5t-23 66.5q0 36 24.5 66t69.5 30q41 0 69 -24.5t28 -65.5q0 -43 -27.5 -72.5t-71.5 -29.5zM731 1700q-46 0 -69 29.5t-23 66.5q0 34 24.5 64t69.5 30q41 0 68.5 -24t27.5 -64q0 -44 -27 -73t-71 -29z" />
    <glyph glyph-name="copyright" unicode="&#xa9;" horiz-adv-x="1847" 
d="M926 -35q-172 0 -323.5 61t-258.5 167t-169 254.5t-62 318.5q0 165 63.5 313.5t172 256.5t259 171.5t318.5 63.5q228 0 413.5 -104.5t290.5 -289t105 -411.5q0 -164 -63.5 -312t-171.5 -255.5t-258 -170.5t-316 -63zM244 768q0 -143 53.5 -273.5t144.5 -225.5t218 -151.5
t266 -56.5q144 0 270.5 55t215.5 150t140.5 225.5t51.5 276.5q0 188 -89 350.5t-246 259.5t-343 97q-193 0 -349.5 -92.5t-244.5 -254.5t-88 -360zM979 313q-234 0 -378 128.5t-144 344.5q0 109 42 197t93 135q68 62 154.5 89.5t205.5 27.5q72 0 168 -16q13 -2 43 -8
t54.5 -11.5t25.5 -5.5q4 0 12 1t11 1q2 0 2.5 -1.5t0.5 -5.5v-8t-0.5 -11t-0.5 -13q0 -18 -3.5 -88t-7.5 -90q-3 -21 -16 -21q-14 0 -18 31q-3 55 -39 96q-22 25 -81.5 49.5t-148.5 24.5q-133 0 -214 -87t-81 -238q0 -101 32 -186t83 -138t111 -82t119 -29q126 0 180 54
q27 27 45 100q8 25 20 25q15 0 15 -23q0 -48 -23 -160q-6 -34 -12.5 -42.5t-30.5 -14.5q-90 -25 -219 -25z" />
    <glyph glyph-name="ordfeminine" unicode="&#xaa;" horiz-adv-x="870" 
d="M520 1055h-241q-9 0 -15 -13l-39 -104q-8 -24 -8 -47q0 -10 8.5 -18.5t26.5 -8.5h14q17 0 17 -14t-19 -14q-16 0 -55 2t-59 2q-13 0 -63 -2t-79 -2q-18 0 -18 14t14 14q4 0 15 1t16 1q32 4 49.5 21t36.5 55l285 606q18 39 34 39q17 0 31 -31q6 -13 60 -137t113 -257.5
t91 -198.5q44 -91 82 -95q28 -4 43 -4q12 0 12 -14t-47 -14q-111 0 -213 4q-30 0 -30 10q0 16 14 16q5 0 7 6.5t-1 12.5l-67 157q-7 13 -15 13zM305 1124h191q4 0 4 6l-82 203q-10 27 -17 27q-8 0 -16 -21l-86 -209q-3 -6 6 -6z" />
    <glyph glyph-name="guillemotleft" unicode="&#xab;" horiz-adv-x="1126" 
d="M979 260l-78 -88q-14 -14 -20 -14q-9 0 -66 67q-45 50 -153 168t-136 146q-37 37 -37 49q0 11 39 45q16 14 111.5 101t184.5 167t100 88q30 23 39 23t16.5 -5.5t7.5 -11.5q0 -14 -12 -26q-42 -47 -158.5 -187.5t-144.5 -183.5q25 -33 117.5 -127.5t168.5 -165.5
q29 -25 29 -31t-8 -14zM575 260l-77 -88q-14 -14 -21 -14q-8 0 -65 67q-45 50 -153 168t-136 146q-37 37 -37 49q0 11 39 45q15 13 198 179.5t197 176.5q30 23 39 23t17 -5.5t8 -11.5q0 -13 -13 -26q-42 -47 -158.5 -187.5t-144.5 -183.5q25 -33 117.5 -127t169.5 -166
q29 -25 29 -31q0 -5 -9 -14z" />
    <glyph glyph-name="logicalnot" unicode="&#xac;" horiz-adv-x="1124" 
d="M1042 262h-131v387h-829v125h960v-512z" />
    <glyph glyph-name="uni00AD" unicode="&#xad;" horiz-adv-x="870" 
d="M154 645h581q66 0 66 -29q0 -20 -20 -28t-72 -17q-76 -11 -278 -47.5t-251 -50.5q-21 -5 -51.5 -19t-38.5 -14q-23 0 -16 37l30 141q4 18 13.5 22.5t36.5 4.5z" />
    <glyph glyph-name="registered" unicode="&#xae;" horiz-adv-x="421" 
d="M211 1210q-81 0 -134.5 51.5t-53.5 127.5q0 78 53 129t135 51t135 -51t53 -129q0 -76 -53.5 -127.5t-134.5 -51.5zM213 1245q65 0 106 41t41 105q0 65 -41 104t-108 39t-108.5 -39t-41.5 -104t42.5 -105.5t109.5 -40.5zM133 1374v45v51q0 15 -24 15q-5 0 -5 6q0 8 11 8h8
q1 0 14 -1t21 -1q9 0 23 1t24 1q90 0 90 -55q0 -31 -43 -62l37 -43q26 -30 35 -30q6 0 6 -6q0 -9 -19 -9t-27 1t-23 10t-30 28l-28 39h-25v-18q0 -39 4 -43q4 -2 21 -2q6 0 6 -6q0 -9 -8 -9h-8q-1 0 -14 1t-19 1q-3 0 -16 -1t-15 -1h-10q-15 0 -15 9q0 6 7 6q14 0 17.5 1.5
t4.5 10.5q1 4 1 10.5t-0.5 19t-0.5 23.5zM178 1473v-74q9 -6 29 -6q12 0 18 4q19 11 19 35q0 19 -13 32t-34 13q-15 0 -19 -4z" />
    <glyph glyph-name="macron" unicode="&#xaf;" horiz-adv-x="1898" 
d="M1184 1755h-492q-10 0 -14 3t-2 11l16 74q5 19 23 19h491q23 0 17 -21l-17 -74q-3 -12 -22 -12z" />
    <glyph glyph-name="degree" unicode="&#xb0;" horiz-adv-x="743" 
d="M637 1186q0 -115 -80 -190.5t-188 -75.5q-114 0 -188.5 75.5t-74.5 180.5q0 112 77 189t190 77h2q117 0 189.5 -75.5t72.5 -180.5zM522 1182q0 63 -38.5 112t-112.5 49h-2q-68 0 -108 -50t-40 -115q0 -66 43 -112t107 -46q66 0 108.5 46.5t42.5 115.5z" />
    <glyph glyph-name="plusminus" unicode="&#xb1;" horiz-adv-x="1124" 
d="M1042 649h-415v-416h-131v416h-414v125h414v418h131v-418h415v-125zM1042 0h-960v125h960v-125z" />
    <glyph glyph-name="twosuperior" unicode="&#xb2;" horiz-adv-x="909" 
d="M633 625h-529q-22 0 -22 16q0 9 24 33q119 98 196 171t139 150t90 149.5t28 149.5q0 55 -18.5 97.5t-47.5 65t-59.5 33.5t-60.5 11q-85 0 -142 -57q-40 -40 -43 -105q0 -22 -18 -22q-11 0 -14 33q-1 0 -3 27.5t-4 62t-2 51.5q0 21 15 29q104 51 246 51q164 0 250.5 -70.5
t86.5 -171.5q0 -46 -11.5 -90.5t-28.5 -82t-51.5 -82t-64.5 -77.5t-84.5 -81.5t-94.5 -82t-111 -90.5q-2 -2 -2.5 -4.5t0.5 -4t4 -1.5h59q19 0 119.5 3.5t116.5 4.5q70 6 103.5 30t48.5 75q4 12 8 16t12 4q12 0 12 -18t-15 -79.5t-32 -109.5q-10 -20 -33 -27t-67 -7z" />
    <glyph glyph-name="threesuperior" unicode="&#xb3;" horiz-adv-x="866" 
d="M309 616q-131 0 -180 27q-17 9 -20 19t-3 47q0 84 7 131q3 22 12 22q8 0 11.5 -4t4.5 -16q19 -152 209 -152q86 0 148 50t65 145q2 55 -20.5 99.5t-59 70.5t-73.5 40.5t-72 18.5q-45 5 -45 21q0 19 41 24q15 2 42.5 15.5t60 36.5t56 62.5t23.5 84.5q0 21 -8.5 44
t-26 47.5t-52 40t-79.5 15.5q-71 0 -122.5 -38t-51.5 -93q0 -26 -12 -26q-14 0 -17 22q-12 74 -12 131q0 23 29 33q114 37 231 37q70 0 124 -12.5t85 -31.5t51 -43.5t26.5 -45.5t6.5 -41q0 -43 -21.5 -82t-54.5 -67t-63 -46t-57 -28v-5q35 -5 74.5 -21t80.5 -43.5t67.5 -72
t26.5 -98.5q0 -131 -121 -224.5t-311 -93.5z" />
    <glyph glyph-name="acute" unicode="&#xb4;" horiz-adv-x="1898" 
d="M1229 1991q18 -32 59 -123q15 -31 -10 -31q-2 0 -12.5 1t-25 1t-32.5 -2q-77 -10 -180 -47.5t-170 -73.5q-32 -16 -35 -16q-4 0 -8 3.5t-4 8.5q0 9 18 27q55 52 176.5 145t153.5 113q26 18 41 18q16 0 29 -24z" />
    <glyph glyph-name="mu" unicode="&#xb5;" horiz-adv-x="1179" 
d="M143 307v615h195v-410q0 -197 60.5 -293t195.5 -96q100 0 152.5 64t52.5 223v512h194v-715q0 -115 66 -115q41 0 69 47l31 -14q-12 -70 -58 -113t-108 -43q-152 0 -164 236q-24 -109 -97 -172.5t-179 -63.5q-111 0 -172 32t-105 122q7 -160 33.5 -299.5t59.5 -222.5
l-226 -113l-30 10q30 446 30 809z" />
    <glyph glyph-name="mu" unicode="&#x3bc;" horiz-adv-x="1179" 
d="M143 307v615h195v-410q0 -197 60.5 -293t195.5 -96q100 0 152.5 64t52.5 223v512h194v-715q0 -115 66 -115q41 0 69 47l31 -14q-12 -70 -58 -113t-108 -43q-152 0 -164 236q-24 -109 -97 -172.5t-179 -63.5q-111 0 -172 32t-105 122q7 -160 33.5 -299.5t59.5 -222.5
l-226 -113l-30 10q30 446 30 809z" />
    <glyph glyph-name="paragraph" unicode="&#xb6;" horiz-adv-x="1458" 
d="M786 1382q0 45 -7.5 63.5t-33.5 18.5q-45 0 -93.5 -27t-82.5 -81q-39 -61 -55 -144t-16 -153q0 -140 36.5 -244.5t98.5 -144.5q10 -7 21.5 -12.5t16.5 -8t8 -7.5t3 -13q0 -7 -8 -13t-17 -8q-20 -4 -43 -4q-221 0 -366.5 126t-145.5 329q0 100 41 186.5t101 143.5
q161 153 473 153q19 0 140 -3t144 -3q1 0 127 3t181 3q32 0 32 -18q0 -6 -5 -11.5t-11 -5.5q-33 0 -57 -6q-40 -10 -55.5 -33.5t-18.5 -76.5q-4 -66 -4 -443v-805q0 -344 4 -401q0 -15 -14 -29q-20 -18 -60 -34.5t-61 -16.5q-12 0 -12 10q0 2 4.5 27.5t5.5 50.5
q10 113 10 393v1241q0 80 -72 80q-79 0 -84 -75q-2 -40 -2 -441v-796q0 -424 6 -488q2 -12 -12 -26q-20 -18 -60.5 -35t-64.5 -17q-16 0 -16 13q0 1 1.5 8t4.5 25.5t6 43.5q12 126 12 476v1230z" />
    <glyph glyph-name="periodcentered" unicode="&#xb7;" horiz-adv-x="512" 
d="M254 424q-60 0 -91.5 38t-31.5 87q0 45 32.5 85t92.5 40q54 0 89.5 -33t35.5 -86q0 -56 -35 -93.5t-92 -37.5z" />
    <glyph glyph-name="cedilla" unicode="&#xb8;" horiz-adv-x="1898" 
d="M983 0h117l-191 -141q114 -11 178 -53.5t64 -110.5q0 -34 -18.5 -69.5t-59 -70.5t-118 -57t-181.5 -22q-35 0 -35 20q0 27 54 27q58 0 115 38.5t57 98.5q0 126 -162 150q-45 6 -45 16q0 7 33 31z" />
    <glyph glyph-name="onesuperior" unicode="&#xb9;" horiz-adv-x="696" 
d="M279 993v226q0 93 -3 131q-3 36 -24 36q-10 0 -35.5 -9t-47 -18t-52.5 -22.5t-35 -15.5q-12 -6 -23 -6q-3 0 -7.5 5.5t-4.5 12.5q0 12 10 17q3 3 77 47.5t154 93t91 55.5q45 25 55 25q17 0 17 -27q0 -6 -1.5 -47t-3.5 -115t-2 -163v-226q0 -198 7 -260q3 -29 14.5 -43.5
t44.5 -21.5q46 -11 94 -11q31 0 31 -16q0 -20 -37 -20q-62 0 -145 2t-103 2q-17 0 -104 -2t-144 -2q-36 0 -36 18t28 18q64 0 117 11q34 7 46 21.5t15 43.5q7 62 7 260z" />
    <glyph glyph-name="ordmasculine" unicode="&#xba;" horiz-adv-x="966" 
d="M477 829q-106 0 -188.5 33.5t-130.5 88t-72.5 118.5t-24.5 131q0 65 24 127.5t72 118.5t134 90.5t196 34.5q194 0 306 -95t112 -259q0 -167 -117 -277.5t-311 -110.5zM721 1186q0 142 -74.5 231.5t-189.5 89.5q-39 0 -74 -13.5t-67 -44t-51 -88.5t-19 -138
q0 -131 77.5 -230.5t186.5 -99.5q25 0 49 5.5t55 24t53.5 48.5t38 85.5t15.5 129.5z" />
    <glyph glyph-name="guillemotright" unicode="&#xbb;" horiz-adv-x="1126" 
d="M147 909l78 88q15 15 21 15q7 0 65 -68q43 -48 152 -166.5t137 -146.5q37 -37 37 -49q0 -11 -39 -45q-15 -13 -198 -180t-197 -177q-28 -22 -39 -22q-9 0 -17 5t-8 11q0 14 13 27q43 48 159 187.5t144 182.5q-25 33 -117.5 127t-169.5 166q-29 25 -29 31t8 14zM551 909
l78 88q15 15 20 15q8 0 66 -68q43 -48 152 -166.5t137 -146.5q36 -36 36 -49q0 -11 -39 -45q-15 -13 -198 -180t-197 -177q-28 -22 -39 -22q-9 0 -16.5 5t-7.5 11q0 15 12 27q43 48 159 187.5t144 182.5q-25 33 -117.5 127t-169.5 166q-28 24 -28 31q0 6 8 14z" />
    <glyph glyph-name="onequarter" unicode="&#xbc;" horiz-adv-x="1722" 
d="M1642 348q0 -3 -4 -17.5t-10 -35.5t-8 -29q-5 -16 -27 -16h-141q0 -128 2 -156q3 -29 14.5 -41.5t42.5 -15.5q54 -6 60 -6q4 0 8 -6t4 -11q0 -6 -5.5 -12t-14.5 -6q-33 0 -85.5 1t-92.5 2t-42 1q-1 0 -26.5 -1t-63.5 -2t-71 -1q-17 0 -17 18q0 7 5.5 12t11.5 5q4 0 14 1
t24 2.5t21 2.5q33 3 45 15.5t14 41.5q3 83 3 156h-465q-12 0 -20.5 7t-8.5 15q0 15 20 35q60 69 566 617q19 22 37 22q20 0 20 -20v-578h111q16 0 31.5 3.5t24.5 7t11 3.5q4 0 8 -4.5t4 -9.5zM1303 348v363h-9l-331 -363h340zM1462 1524q10 -7 -2 -25l-1104 -1519
q-15 -18 -24 -11l-60 43q-14 11 4 35l1098 1509q13 18 27 9zM635 641q0 -20 -37 -20q-62 0 -145 2t-103 2q-17 0 -104 -2t-144 -2q-36 0 -36 18t28 18q64 0 117 11q34 7 46 21.5t15 43.5q7 62 7 260v226q0 93 -3 131q-3 36 -24 36q-10 0 -35.5 -9t-47 -18t-52.5 -22.5
t-35 -15.5q-12 -6 -23 -6q-3 0 -7.5 5.5t-4.5 12.5q0 12 10 17q3 3 77 47.5t154 93t91 55.5q45 25 55 25q17 0 17 -27q0 -6 -1.5 -47t-3.5 -115t-2 -163v-226q0 -198 7 -260q3 -29 14.5 -43.5t44.5 -21.5q46 -11 94 -11q31 0 31 -16z" />
    <glyph glyph-name="onehalf" unicode="&#xbd;" horiz-adv-x="1892" 
d="M1763 223q0 -18 -15 -79t-32 -109q-18 -35 -100 -35h-529q-22 0 -22 16q0 4 3 9.5t6 8.5t9 8.5t7 6.5q118 98 195.5 171t139 150t89.5 150t28 150q0 55 -18.5 97.5t-47.5 65t-59.5 33.5t-60.5 11q-84 0 -142 -58q-40 -40 -43 -104q0 -23 -18 -23q-11 0 -14 33
q-1 0 -3 27.5t-4 62t-2 51.5q0 22 15 29q104 51 246 51q165 0 251.5 -70.5t86.5 -170.5q0 -54 -13 -103t-44.5 -99t-63 -89.5t-92.5 -95t-106 -93.5t-128 -106q-2 -2 -2.5 -4.5t0.5 -4t4 -1.5h59q19 0 119.5 3.5t116.5 4.5q70 6 103.5 29.5t48.5 74.5q8 21 20 21t12 -19z
M1462 1524q10 -7 -2 -25l-1104 -1519q-15 -18 -24 -11l-60 43q-14 11 4 35l1098 1509q13 18 27 9zM635 641q0 -20 -37 -20q-62 0 -145 2t-103 2q-17 0 -104 -2t-144 -2q-36 0 -36 18t28 18q64 0 117 11q34 7 46 21.5t15 43.5q7 62 7 260v226q0 93 -3 131q-3 36 -24 36
q-10 0 -35.5 -9t-47 -18t-52.5 -22.5t-35 -15.5q-12 -6 -23 -6q-3 0 -7.5 5.5t-4.5 12.5q0 12 10 17q3 3 77 47.5t154 93t91 55.5q45 25 55 25q17 0 17 -27q0 -6 -1.5 -47t-3.5 -115t-2 -163v-226q0 -198 7 -260q3 -29 14.5 -43.5t44.5 -21.5q46 -11 94 -11q31 0 31 -16z
" />
    <glyph glyph-name="threequarters" unicode="&#xbe;" horiz-adv-x="1806" 
d="M1724 348q0 -3 -4 -17.5t-10 -35.5t-8 -29q-5 -16 -27 -16h-141q0 -128 2 -156q3 -29 14.5 -41.5t42.5 -15.5q54 -6 60 -6q4 0 8 -6t4 -11q0 -6 -5.5 -12t-14.5 -6q-33 0 -85.5 1t-92.5 2t-42 1q-1 0 -26.5 -1t-63.5 -2t-71 -1q-17 0 -17 18q0 7 5.5 12t11.5 5q4 0 14 1
t24 2.5t21 2.5q33 3 45 15.5t14 41.5q2 55 2 156h-464q-12 0 -20.5 7t-8.5 15q0 15 20 35q60 69 566 617q19 22 36 22q21 0 21 -20v-578h111q16 0 31.5 3.5t24.5 7t11 3.5q4 0 8 -4.5t4 -9.5zM1384 348v363h-8l-332 -363h340zM1544 1524q10 -7 -2 -25l-1104 -1519
q-15 -18 -24 -11l-60 43q-14 11 4 35l1098 1509q13 18 27 9zM741 934q0 -131 -121 -224.5t-311 -93.5q-131 0 -180 27q-17 9 -20 19t-3 47q0 84 7 131q3 22 12 22q8 0 11.5 -4t4.5 -16q19 -152 209 -152q86 0 148 50t65 145q2 55 -20.5 99.5t-59 70.5t-73.5 40.5t-72 18.5
q-45 5 -45 21q0 19 41 24q15 2 42.5 15.5t60 36.5t56 62.5t23.5 84.5q0 21 -8.5 44t-26 47.5t-52 40t-79.5 15.5q-71 0 -122.5 -38t-51.5 -93q0 -26 -12 -26q-14 0 -17 22q-12 74 -12 131q0 23 29 33q114 37 231 37q70 0 124 -12.5t85 -31.5t51 -43.5t26.5 -45.5t6.5 -41
q0 -43 -21.5 -82t-54.5 -67t-63 -46t-57 -28v-5q35 -5 74.5 -21t80.5 -43.5t67.5 -72t26.5 -98.5z" />
    <glyph glyph-name="questiondown" unicode="&#xbf;" horiz-adv-x="1089" 
d="M578 -281q-120 0 -209.5 30t-136 78t-68 98.5t-21.5 101.5q0 62 15.5 120.5t38 103t62 96t71 86t82 88.5t80.5 89q104 122 104 181q0 60 -33 104q-16 24 -16 37q0 5 5 10.5t13 5.5q25 0 105 -63q53 -42 72.5 -71t19.5 -58q0 -51 -41 -105q-18 -23 -65.5 -78.5
t-69.5 -85.5q-103 -140 -141.5 -229t-38.5 -190q0 -48 12.5 -91t39 -82t75.5 -62t116 -23q66 0 117 22.5t78 56.5q64 84 71 170q4 41 19 41q5 0 8.5 -1.5t5.5 -6t3 -7.5t3 -11q9 -44 9 -240q0 -19 -23 -33q-135 -82 -362 -82zM606 1325q55 0 84 -35.5t29 -79.5
q0 -43 -29.5 -79.5t-85.5 -36.5q-50 0 -82.5 29.5t-32.5 78.5q0 52 32.5 87.5t84.5 35.5z" />
    <glyph glyph-name="Agrave" unicode="&#xc0;" horiz-adv-x="1433" 
d="M874 528h-456q-14 0 -19 -16l-110 -293q-31 -79 -31 -125q0 -63 82 -63h31q18 0 24 -4t6 -13q0 -20 -34 -20q-33 0 -109.5 3t-107.5 3q-1 0 -90 -3t-152 -3q-39 0 -39 20q0 17 25 17q31 0 63 4q65 8 102 52t72 132l514 1286q20 48 31.5 65t25.5 17q13 0 25 -15t27 -50
q20 -46 227.5 -567t280.5 -693q28 -65 54.5 -110t49.5 -67.5t40 -31.5t36 -14q41 -8 86 -8q26 0 26 -17q0 -12 -18.5 -16t-75.5 -4q-223 0 -387 4q-53 3 -59 10q-2 2 -2 6q0 16 28 19q12 3 19 16.5t0 30.5l-164 434q-6 14 -21 14zM459 631h377q14 0 10 12l-184 506
q-4 18 -11 18t-12 -18l-188 -504q-3 -14 8 -14zM868 1714q0 -14 -22 -14q-20 0 -183 69t-233 101q-29 12 -48.5 27t-19.5 24q0 11 27 18q65 20 137 52q32 14 39 14q5 0 8 -4t10.5 -17t14.5 -24q17 -24 90.5 -93.5t136.5 -115.5q7 -5 19 -12.5t18 -13t6 -11.5z" />
    <glyph glyph-name="Aacute" unicode="&#xc1;" horiz-adv-x="1433" 
d="M874 528h-456q-14 0 -19 -16l-110 -293q-31 -79 -31 -125q0 -63 82 -63h31q18 0 24 -4t6 -13q0 -20 -34 -20q-33 0 -109.5 3t-107.5 3q-1 0 -90 -3t-152 -3q-39 0 -39 20q0 17 25 17q31 0 63 4q65 8 102 52t72 132l514 1286q20 48 31.5 65t25.5 17q13 0 25 -15t27 -50
q20 -46 227.5 -567t280.5 -693q28 -65 54.5 -110t49.5 -67.5t40 -31.5t36 -14q41 -8 86 -8q26 0 26 -17q0 -12 -18.5 -16t-75.5 -4q-223 0 -387 4q-53 3 -59 10q-2 2 -2 6q0 16 28 19q12 3 19 16.5t0 30.5l-164 434q-6 14 -21 14zM459 631h377q14 0 10 12l-184 506
q-4 18 -11 18t-12 -18l-188 -504q-3 -14 8 -14zM997 1991q23 -42 60 -123q15 -31 -10 -31q-2 0 -12.5 1t-25 1t-32.5 -2q-77 -10 -180 -47.5t-170 -73.5q-32 -16 -35 -16q-4 0 -8 3.5t-4 8.5q0 9 18 27q55 52 176.5 145t153.5 113q26 18 41 18q10 0 15 -4.5t13 -19.5z" />
    <glyph glyph-name="Acircumflex" unicode="&#xc2;" horiz-adv-x="1433" 
d="M874 528h-456q-14 0 -19 -16l-110 -293q-31 -79 -31 -125q0 -63 82 -63h31q18 0 24 -4t6 -13q0 -20 -34 -20q-33 0 -109.5 3t-107.5 3q-1 0 -90 -3t-152 -3q-39 0 -39 20q0 17 25 17q31 0 63 4q65 8 102 52t72 132l514 1286q20 48 31.5 65t25.5 17q13 0 25 -15t27 -50
q20 -46 227.5 -567t280.5 -693q28 -65 54.5 -110t49.5 -67.5t40 -31.5t36 -14q41 -8 86 -8q26 0 26 -17q0 -12 -18.5 -16t-75.5 -4q-223 0 -387 4q-53 3 -59 10q-2 2 -2 6q0 16 28 19q12 3 19 16.5t0 30.5l-164 434q-6 14 -21 14zM459 631h377q14 0 10 12l-184 506
q-4 18 -11 18t-12 -18l-188 -504q-3 -14 8 -14zM729 2009q5 0 37 -22q30 -26 244 -185q28 -19 28 -28q0 -11 -10 -21l-59 -59q-15 -15 -27 -15q-8 0 -31 23q-24 26 -91.5 81t-88.5 70q-16 13 -26 13q-9 0 -31 -11q-129 -75 -217 -151q-28 -25 -41 -25q-8 0 -13.5 6t-5.5 15
q0 8 19 31q16 18 131 126t139 128q27 24 43 24z" />
    <glyph glyph-name="Atilde" unicode="&#xc3;" horiz-adv-x="1433" 
d="M874 528h-456q-14 0 -19 -16l-110 -293q-31 -79 -31 -125q0 -63 82 -63h31q18 0 24 -4t6 -13q0 -20 -34 -20q-33 0 -109.5 3t-107.5 3q-1 0 -90 -3t-152 -3q-39 0 -39 20q0 17 25 17q31 0 63 4q65 8 102 52t72 132l514 1286q20 48 31.5 65t25.5 17q13 0 25 -15t27 -50
q20 -46 227.5 -567t280.5 -693q28 -65 54.5 -110t49.5 -67.5t40 -31.5t36 -14q41 -8 86 -8q26 0 26 -17q0 -12 -18.5 -16t-75.5 -4q-223 0 -387 4q-53 3 -59 10q-2 2 -2 6q0 16 28 19q12 3 19 16.5t0 30.5l-164 434q-6 14 -21 14zM459 631h377q14 0 10 12l-184 506
q-4 18 -11 18t-12 -18l-188 -504q-3 -14 8 -14zM862 1700q-14 0 -27 1t-26 3.5t-23 5t-22.5 7t-19 7t-19 8.5t-16.5 8t-16.5 9t-14.5 8t-15.5 8.5t-17.5 9.5l-16 8t-19.5 8t-18.5 5.5t-22 4.5t-22 1q-36 0 -69.5 -17t-43 -27t-26.5 -29q-21 -21 -33 -21q-15 0 -15 14
q0 16 17 39q36 56 92.5 107t120.5 51q12 0 23 -1t22 -3.5t19 -4t19 -6.5t16.5 -7t17.5 -8.5t15.5 -8.5t16 -9t15.5 -9q79 -45 147 -45q76 0 125 61q20 27 33 27q6 0 11 -5t5 -12q0 -11 -12 -35q-23 -44 -81 -98.5t-120 -54.5z" />
    <glyph glyph-name="Adieresis" unicode="&#xc4;" horiz-adv-x="1433" 
d="M874 528h-456q-14 0 -19 -16l-110 -293q-31 -79 -31 -125q0 -63 82 -63h31q18 0 24 -4t6 -13q0 -20 -34 -20q-33 0 -109.5 3t-107.5 3q-1 0 -90 -3t-152 -3q-39 0 -39 20q0 17 25 17q31 0 63 4q65 8 102 52t72 132l514 1286q20 48 31.5 65t25.5 17q13 0 25 -15t27 -50
q20 -46 227.5 -567t280.5 -693q28 -65 54.5 -110t49.5 -67.5t40 -31.5t36 -14q41 -8 86 -8q26 0 26 -17q0 -12 -18.5 -16t-75.5 -4q-223 0 -387 4q-53 3 -59 10q-2 2 -2 6q0 16 28 19q12 3 19 16.5t0 30.5l-164 434q-6 14 -21 14zM459 631h377q14 0 10 12l-184 506
q-4 18 -11 18t-12 -18l-188 -504q-3 -14 8 -14zM932 1700q-46 0 -69 29.5t-23 66.5q0 36 24.5 66t69.5 30q41 0 68.5 -24.5t27.5 -65.5q0 -44 -27 -73t-71 -29zM500 1700q-46 0 -69 29.5t-23 66.5q0 34 24.5 64t69.5 30q41 0 68.5 -24t27.5 -64q0 -44 -27 -73t-71 -29z" />
    <glyph glyph-name="Aring" unicode="&#xc5;" horiz-adv-x="1433" 
d="M874 528h-456q-14 0 -19 -16l-110 -293q-31 -79 -31 -125q0 -63 82 -63h31q18 0 24 -4t6 -13q0 -20 -34 -20q-33 0 -109.5 3t-107.5 3q-1 0 -90 -3t-152 -3q-39 0 -39 20q0 17 25 17q31 0 63 4q65 8 102 52t72 132l514 1286q20 48 31.5 65t25.5 17q13 0 25 -15t27 -50
q20 -46 227.5 -567t280.5 -693q28 -65 54.5 -110t49.5 -67.5t40 -31.5t36 -14q41 -8 86 -8q26 0 26 -17q0 -12 -18.5 -16t-75.5 -4q-223 0 -387 4q-53 3 -59 10q-2 2 -2 6q0 16 28 19q12 3 19 16.5t0 30.5l-164 434q-6 14 -21 14zM459 631h377q14 0 10 12l-184 506
q-4 18 -11 18t-12 -18l-188 -504q-3 -14 8 -14zM664 1679q-83 0 -133 34.5t-50 88.5q0 72 81.5 126t199.5 54q89 0 141.5 -32.5t52.5 -85.5q1 -81 -91 -133t-201 -52zM606 1831q0 -44 32 -72t71 -28q51 0 86.5 31.5t35.5 74.5q0 40 -27.5 67t-80.5 27q-42 0 -79.5 -26
t-37.5 -74z" />
    <glyph glyph-name="AE" unicode="&#xc6;" horiz-adv-x="1898" 
d="M954 588v98q0 16 -18 16h-330q-26 0 -35 -14q-13 -18 -110 -188t-111 -193q-90 -150 -90 -201q0 -41 35 -57q41 -18 104 -18q31 0 31 -17q0 -20 -39 -20q-77 0 -180.5 3t-112.5 3q-10 0 -104 -3t-156 -3q-17 0 -22.5 4.5t-5.5 15.5q0 17 28 17q48 0 88 18q41 18 78.5 49
t57.5 55.5t46.5 61.5t34.5 47q18 24 99 146.5t187.5 288.5t205.5 319.5t179 279t81 127.5q35 56 45 90q7 29 27 29q3 0 14 -1t20 -1q36 -4 74 -4q473 0 512 2q68 7 88 12l15 5t18 4q12 0 12 -19q0 -5 -2.5 -18t-6.5 -43.5t-7 -71.5q0 -4 -4 -62t-6 -73q-5 -23 -21 -23
q-18 0 -18 29q0 42 -13 74q-12 31 -39 48t-98 25q-24 3 -138 6t-153 3q-14 0 -14 -21v-584q0 -22 14 -22q281 0 328 4q76 6 98 31q23 26 33 26q15 0 15 -18q0 -4 -2.5 -19t-7 -50.5t-7.5 -80.5q-1 -17 -3 -49t-3.5 -57t-1.5 -31q0 -39 -18 -39q-19 0 -19 19q-7 67 -8 73
q-17 70 -115 80q-88 9 -291 9q-12 0 -12 -21v-96q0 -31 -0.5 -108t-1 -142t-0.5 -68q2 -75 20.5 -109t68.5 -48.5t157 -14.5q139 0 192 25q40 19 61.5 53.5t31.5 97.5q3 18 7.5 24.5t14.5 6.5q8 0 11.5 -6t4 -12t0.5 -19q0 -35 -9 -115.5t-17 -111.5q-10 -38 -29 -45.5
t-82 -7.5q-90 0 -354 6q-132 6 -213 6q-10 0 -47.5 -1t-61.5 -1q-90 -4 -129 -4q-22 0 -30.5 4t-8.5 14t5.5 14.5t21.5 4.5q36 0 72 8q28 5 40 32.5t19 80.5q10 86 10 436zM954 815v496h-10q-17 -29 -88.5 -147.5t-134 -223t-70.5 -121.5q-10 -20 11 -20h274q18 0 18 16z
" />
    <glyph glyph-name="Ccedilla" unicode="&#xc7;" horiz-adv-x="1638" 
d="M961 -31l-148 -110q114 -11 178 -53.5t64 -110.5q0 -34 -18.5 -69.5t-59 -70.5t-118 -57t-181.5 -22q-35 0 -35 20q0 27 53 27q58 0 115 38.5t57 98.5q0 126 -161 150q-45 6 -45 16q0 7 32 31l164 123q-118 16 -224 53.5t-202.5 104.5t-166.5 157.5t-111 218t-41 279.5
q0 59 10.5 122.5t34.5 140.5t74 155.5t120 142.5q116 106 271.5 161.5t375.5 55.5q133 0 297 -21q38 -5 106 -18t99 -16t31 -25q0 -6 -1.5 -19t-4 -38t-4.5 -56q-2 -33 -3 -116.5t-3 -104.5q-3 -47 -25 -47q-21 0 -21 45q-2 49 -22 99.5t-57 88.5q-52 56 -165.5 91.5
t-250.5 35.5q-246 0 -385 -127q-189 -173 -189 -530q0 -140 41 -262t107.5 -206t151.5 -144t173.5 -88.5t172.5 -28.5q145 0 230 24t144 91q25 28 44.5 66.5t25.5 68.5q5 25 10 33t17 8q18 0 18 -31q0 -23 -15.5 -123.5t-29.5 -148.5q-8 -27 -17.5 -38.5t-35.5 -21.5
q-117 -47 -369 -47q-42 0 -108 4z" />
    <glyph glyph-name="Egrave" unicode="&#xc8;" 
d="M336 588v360q0 368 -4 434q-3 55 -21 81t-67 36q-24 6 -80 6q-35 0 -35 19q0 18 45 18q28 0 84.5 -1t81.5 -1q106 -4 129 -4q473 0 512 2q68 7 88 12l15 5t18 4q12 0 12 -19q0 -5 -2.5 -18t-6.5 -43.5t-7 -71.5q0 -3 -4.5 -61.5t-6.5 -73.5q-5 -23 -20 -23q-18 0 -18 29
q0 42 -13 74q-12 31 -39 48t-98 25q-24 3 -138 6t-153 3q-14 0 -14 -21v-518q0 -23 14 -23q269 0 328 5q77 6 98 30q24 27 33 27q14 0 14 -16q0 -4 -2 -19t-6.5 -50.5t-7.5 -80.5q-1 -17 -3 -49t-3.5 -57t-1.5 -31q0 -39 -19 -39q-18 0 -18 18q-7 69 -8 74q-17 70 -115 80
q-59 6 -291 6q-12 0 -12 -20v-162v-318q2 -75 20.5 -109t68.5 -48.5t157 -14.5q139 0 192 25q40 19 60.5 53.5t31.5 97.5q5 31 23 31q8 0 11.5 -6t4 -12t0.5 -19q0 -35 -9 -115.5t-17 -111.5q-10 -38 -29 -45.5t-82 -7.5q-90 0 -354 6q-132 6 -213 6q-68 0 -117 -2
q-24 0 -72.5 -2t-68.5 -2q-41 0 -41 20q0 17 33 17q37 0 73 8q28 5 40.5 33t19.5 80q10 86 10 436zM838 1714q0 -14 -23 -14q-20 0 -183 69t-233 101q-28 12 -47.5 27t-19.5 24q0 11 26 18q68 21 138 52q32 14 39 14q4 0 7.5 -4.5t10 -17t14.5 -23.5q17 -24 91 -93.5
t137 -115.5q7 -5 19 -12.5t18 -13t6 -11.5z" />
    <glyph glyph-name="Eacute" unicode="&#xc9;" 
d="M336 588v360q0 368 -4 434q-3 55 -21 81t-67 36q-24 6 -80 6q-35 0 -35 19q0 18 45 18q28 0 84.5 -1t81.5 -1q106 -4 129 -4q473 0 512 2q68 7 88 12l15 5t18 4q12 0 12 -19q0 -5 -2.5 -18t-6.5 -43.5t-7 -71.5q0 -3 -4.5 -61.5t-6.5 -73.5q-5 -23 -20 -23q-18 0 -18 29
q0 42 -13 74q-12 31 -39 48t-98 25q-24 3 -138 6t-153 3q-14 0 -14 -21v-518q0 -23 14 -23q269 0 328 5q77 6 98 30q24 27 33 27q14 0 14 -16q0 -4 -2 -19t-6.5 -50.5t-7.5 -80.5q-1 -17 -3 -49t-3.5 -57t-1.5 -31q0 -39 -19 -39q-18 0 -18 18q-7 69 -8 74q-17 70 -115 80
q-59 6 -291 6q-12 0 -12 -20v-162v-318q2 -75 20.5 -109t68.5 -48.5t157 -14.5q139 0 192 25q40 19 60.5 53.5t31.5 97.5q5 31 23 31q8 0 11.5 -6t4 -12t0.5 -19q0 -35 -9 -115.5t-17 -111.5q-10 -38 -29 -45.5t-82 -7.5q-90 0 -354 6q-132 6 -213 6q-68 0 -117 -2
q-24 0 -72.5 -2t-68.5 -2q-41 0 -41 20q0 17 33 17q37 0 73 8q28 5 40.5 33t19.5 80q10 86 10 436zM946 1991q23 -42 60 -123q15 -31 -11 -31q-2 0 -12 1t-24.5 1t-32.5 -2q-78 -10 -181 -47.5t-170 -73.5q-32 -16 -34 -16q-4 0 -8.5 3.5t-4.5 8.5q0 8 19 27
q55 52 176.5 145t153.5 113q26 18 41 18q10 0 15 -4.5t13 -19.5z" />
    <glyph glyph-name="Ecircumflex" unicode="&#xca;" 
d="M336 588v360q0 368 -4 434q-3 55 -21 81t-67 36q-24 6 -80 6q-35 0 -35 19q0 18 45 18q28 0 84.5 -1t81.5 -1q106 -4 129 -4q473 0 512 2q68 7 88 12l15 5t18 4q12 0 12 -19q0 -5 -2.5 -18t-6.5 -43.5t-7 -71.5q0 -3 -4.5 -61.5t-6.5 -73.5q-5 -23 -20 -23q-18 0 -18 29
q0 42 -13 74q-12 31 -39 48t-98 25q-24 3 -138 6t-153 3q-14 0 -14 -21v-518q0 -23 14 -23q269 0 328 5q77 6 98 30q24 27 33 27q14 0 14 -16q0 -4 -2 -19t-6.5 -50.5t-7.5 -80.5q-1 -17 -3 -49t-3.5 -57t-1.5 -31q0 -39 -19 -39q-18 0 -18 18q-7 69 -8 74q-17 70 -115 80
q-59 6 -291 6q-12 0 -12 -20v-162v-318q2 -75 20.5 -109t68.5 -48.5t157 -14.5q139 0 192 25q40 19 60.5 53.5t31.5 97.5q5 31 23 31q8 0 11.5 -6t4 -12t0.5 -19q0 -35 -9 -115.5t-17 -111.5q-10 -38 -29 -45.5t-82 -7.5q-90 0 -354 6q-132 6 -213 6q-68 0 -117 -2
q-24 0 -72.5 -2t-68.5 -2q-41 0 -41 20q0 17 33 17q37 0 73 8q28 5 40.5 33t19.5 80q10 86 10 436zM698 2009q5 0 37 -22q30 -26 244 -185q29 -20 29 -28q0 -10 -11 -21l-59 -59q-15 -15 -27 -15q-7 0 -30 23q-24 26 -91.5 81t-89.5 70q-16 13 -26 13q-9 0 -31 -11
q-129 -75 -217 -151q-28 -25 -41 -25q-8 0 -13 6t-5 15t18 31q16 18 131 126t139 128q27 24 43 24z" />
    <glyph glyph-name="Edieresis" unicode="&#xcb;" 
d="M336 588v360q0 368 -4 434q-3 55 -21 81t-67 36q-24 6 -80 6q-35 0 -35 19q0 18 45 18q28 0 84.5 -1t81.5 -1q106 -4 129 -4q473 0 512 2q68 7 88 12l15 5t18 4q12 0 12 -19q0 -5 -2.5 -18t-6.5 -43.5t-7 -71.5q0 -3 -4.5 -61.5t-6.5 -73.5q-5 -23 -20 -23q-18 0 -18 29
q0 42 -13 74q-12 31 -39 48t-98 25q-24 3 -138 6t-153 3q-14 0 -14 -21v-518q0 -23 14 -23q269 0 328 5q77 6 98 30q24 27 33 27q14 0 14 -16q0 -4 -2 -19t-6.5 -50.5t-7.5 -80.5q-1 -17 -3 -49t-3.5 -57t-1.5 -31q0 -39 -19 -39q-18 0 -18 18q-7 69 -8 74q-17 70 -115 80
q-59 6 -291 6q-12 0 -12 -20v-162v-318q2 -75 20.5 -109t68.5 -48.5t157 -14.5q139 0 192 25q40 19 60.5 53.5t31.5 97.5q5 31 23 31q8 0 11.5 -6t4 -12t0.5 -19q0 -35 -9 -115.5t-17 -111.5q-10 -38 -29 -45.5t-82 -7.5q-90 0 -354 6q-132 6 -213 6q-68 0 -117 -2
q-24 0 -72.5 -2t-68.5 -2q-41 0 -41 20q0 17 33 17q37 0 73 8q28 5 40.5 33t19.5 80q10 86 10 436zM901 1700q-46 0 -69 29.5t-23 66.5q0 36 24.5 66t69.5 30q41 0 68.5 -24.5t27.5 -65.5q0 -44 -27 -73t-71 -29zM469 1700q-46 0 -69 29.5t-23 66.5q0 34 24.5 64t69.5 30
q41 0 68.5 -24t27.5 -64q0 -44 -27 -73t-71 -29z" />
    <glyph glyph-name="Igrave" unicode="&#xcc;" horiz-adv-x="925" 
d="M336 588v360q0 368 -4 434q-6 101 -70 115q-31 8 -74 8q-32 0 -32 21q0 16 49 16q41 0 140 -3t126 -3q22 0 115 3t135 3q43 0 43 -16q0 -21 -33 -21q-23 0 -61 -6q-40 -7 -56.5 -34t-19.5 -83q-4 -66 -4 -434v-360q0 -361 8 -449q5 -46 22 -70t60 -30q58 -8 104 -8
q33 0 33 -17q0 -20 -39 -20q-78 0 -190 3t-129 3q-19 0 -116 -3t-142 -3q-41 0 -41 20q0 17 33 17q37 0 73 8q29 6 42 30t18 72q10 86 10 447zM614 1714q0 -14 -22 -14q-20 0 -183 69t-233 101q-28 12 -47.5 27t-19.5 24q0 11 26 18q65 20 137 52q32 14 39 14q5 0 8 -4
t10.5 -17t14.5 -24q17 -24 90.5 -93.5t136.5 -115.5q7 -5 19 -12.5t18 -13t6 -11.5z" />
    <glyph glyph-name="Iacute" unicode="&#xcd;" horiz-adv-x="925" 
d="M336 588v360q0 368 -4 434q-6 101 -70 115q-31 8 -74 8q-32 0 -32 21q0 16 49 16q41 0 140 -3t126 -3q22 0 115 3t135 3q43 0 43 -16q0 -21 -33 -21q-23 0 -61 -6q-40 -7 -56.5 -34t-19.5 -83q-4 -66 -4 -434v-360q0 -361 8 -449q5 -46 22 -70t60 -30q58 -8 104 -8
q33 0 33 -17q0 -20 -39 -20q-78 0 -190 3t-129 3q-19 0 -116 -3t-142 -3q-41 0 -41 20q0 17 33 17q37 0 73 8q29 6 42 30t18 72q10 86 10 447zM743 1991q23 -42 60 -123q15 -31 -10 -31q-2 0 -12.5 1t-25 1t-32.5 -2q-77 -10 -180 -47.5t-170 -73.5q-32 -16 -35 -16
q-4 0 -8 3.5t-4 8.5q0 9 18 27q55 52 176.5 145t153.5 113q26 18 41 18q10 0 15 -4.5t13 -19.5z" />
    <glyph glyph-name="Icircumflex" unicode="&#xce;" horiz-adv-x="925" 
d="M336 588v360q0 368 -4 434q-6 101 -70 115q-31 8 -74 8q-32 0 -32 21q0 16 49 16q41 0 140 -3t126 -3q22 0 115 3t135 3q43 0 43 -16q0 -21 -33 -21q-23 0 -61 -6q-40 -7 -56.5 -34t-19.5 -83q-4 -66 -4 -434v-360q0 -361 8 -449q5 -46 22 -70t60 -30q58 -8 104 -8
q33 0 33 -17q0 -20 -39 -20q-78 0 -190 3t-129 3q-19 0 -116 -3t-142 -3q-41 0 -41 20q0 17 33 17q37 0 73 8q29 6 42 30t18 72q10 86 10 447zM475 2009q5 0 37 -22q30 -26 244 -185q28 -19 28 -28q0 -11 -10 -21l-59 -59q-15 -15 -27 -15q-8 0 -31 23q-24 26 -91.5 81
t-88.5 70q-16 13 -26 13q-9 0 -31 -11q-129 -75 -217 -151q-28 -25 -41 -25q-8 0 -13.5 6t-5.5 15q0 8 19 31q16 18 131 126t139 128q27 24 43 24z" />
    <glyph glyph-name="Idieresis" unicode="&#xcf;" horiz-adv-x="925" 
d="M336 588v360q0 368 -4 434q-6 101 -70 115q-31 8 -74 8q-32 0 -32 21q0 16 49 16q41 0 140 -3t126 -3q22 0 115 3t135 3q43 0 43 -16q0 -21 -33 -21q-23 0 -61 -6q-40 -7 -56.5 -34t-19.5 -83q-4 -66 -4 -434v-360q0 -361 8 -449q5 -46 22 -70t60 -30q58 -8 104 -8
q33 0 33 -17q0 -20 -39 -20q-78 0 -190 3t-129 3q-19 0 -116 -3t-142 -3q-41 0 -41 20q0 17 33 17q37 0 73 8q29 6 42 30t18 72q10 86 10 447zM678 1700q-46 0 -69 29.5t-23 66.5q0 36 24.5 66t69.5 30q41 0 68.5 -24.5t27.5 -65.5q0 -44 -27 -73t-71 -29zM246 1700
q-46 0 -69 29.5t-23 66.5q0 34 24.5 64t69.5 30q41 0 68.5 -24t27.5 -64q0 -44 -27 -73t-71 -29z" />
    <glyph glyph-name="Eth" unicode="&#xd0;" horiz-adv-x="1916" 
d="M336 723h-207q-14 0 -10 25l10 61q3 20 27 20h180v119q0 368 -4 434q-3 55 -21 81t-67 36q-24 6 -80 6q-35 0 -35 19q0 18 45 18q61 0 167 -3t128 -3q24 0 135 3t180 3q75 0 116 -0.5t118.5 -5t128 -13t121.5 -25.5t124 -41t110.5 -62t103.5 -86q198 -206 198 -521
q0 -180 -62.5 -328t-158.5 -247q-86 -88 -264.5 -163t-390.5 -75q-63 0 -262 13q-180 12 -207 12q-68 0 -117 -2q-24 0 -72.5 -2t-68.5 -2q-41 0 -41 20q0 17 33 17q37 0 73 8q28 5 40.5 33t19.5 80q10 86 10 436v135zM592 831h409q18 0 15 -24l-12 -68q-3 -18 -25 -18h-387
v-94q0 -238 4 -316q5 -131 22 -155q24 -34 91 -59t178 -25q158 0 274 36t205 117q164 146 164 504q0 176 -58 305.5t-139 206.5q-214 205 -581 205q-34 0 -78.5 -4t-55.5 -10q-24 -11 -24 -41q-2 -70 -2 -410v-150z" />
    <glyph glyph-name="Ntilde" unicode="&#xd1;" horiz-adv-x="1939" 
d="M428 1133l23 -861q3 -114 20.5 -165t50.5 -62q41 -14 107 -14q35 0 35 -17q0 -20 -48 -20q-78 0 -162 3t-92 3q-5 0 -39 -1.5t-84.5 -3t-97.5 -1.5q-15 0 -24 1t-15 5.5t-6 13.5q0 17 33 17q56 0 92 10q38 12 50 63.5t14 190.5l18 1212q0 70 27 70q7 0 13 -2.5t14 -9.5
t13.5 -13t17 -18.5t18.5 -20.5q314 -339 634 -657q59 -59 165.5 -170t189 -197.5t96.5 -99.5h10l-20 920q-1 92 -16.5 130.5t-53.5 53.5q-31 12 -108 12q-33 0 -33 19q0 18 53 18q61 0 147.5 -3t100.5 -3q2 0 71.5 3t129.5 3q47 0 47 -18q0 -19 -37 -19t-62 -6
q-42 -12 -57.5 -49t-17.5 -125l-23 -1292q0 -64 -27 -64q-24 0 -69 45q-73 70 -301.5 299t-302.5 303q-99 98 -209 214.5t-194 209t-85 93.5h-6zM1135 1700q-13 0 -25.5 1t-22.5 2.5t-22 4.5t-19.5 5t-19 7t-17 7t-17 7.5t-15 7.5t-14.5 8t-13 7t-15.5 8.5t-17.5 9.5l-16 8
t-19.5 8t-18.5 5.5t-22 4.5t-22 1q-36 0 -69.5 -17t-43 -27t-26.5 -29q-21 -21 -33 -21q-14 0 -14 14q0 18 16 39q36 56 92.5 107t120.5 51q12 0 23 -1t22 -3.5t19 -4t19 -6.5t16.5 -7t17.5 -8.5t15.5 -8.5t16 -9t15.5 -9q79 -45 148 -45q75 0 124 61q20 27 33 27
q6 0 11.5 -5t5.5 -12q0 -9 -13 -35q-23 -44 -80.5 -98.5t-119.5 -54.5z" />
    <glyph glyph-name="Ograve" unicode="&#xd2;" horiz-adv-x="1898" 
d="M938 -35q-123 0 -231 25.5t-190 70t-150 106.5t-114.5 133t-78.5 150.5t-46.5 159t-14.5 158.5q0 77 14.5 155t46 157.5t78.5 150.5t116 134t153.5 108.5t196.5 71.5t240 26q382 0 605 -207t223 -559q0 -175 -60 -329t-168 -267t-268.5 -178.5t-351.5 -65.5zM1024 68
q36 0 72 5t84.5 22.5t91 46t85.5 79.5t73.5 118t49.5 167.5t19 222.5q0 168 -46.5 309t-127.5 235.5t-190.5 147t-235.5 52.5q-76 0 -143.5 -17t-135 -62.5t-116.5 -115.5t-79 -185t-30 -262q0 -214 74 -386t219 -274.5t336 -102.5zM1100 1714q0 -14 -23 -14
q-20 0 -181.5 68.5t-233.5 101.5q-29 12 -48.5 27t-19.5 24q0 11 27 18q65 20 137 52q32 14 39 14q4 0 7.5 -4.5t10 -17t14.5 -23.5q17 -24 91 -93.5t137 -115.5q7 -5 19 -12.5t18 -13t6 -11.5z" />
    <glyph glyph-name="Oacute" unicode="&#xd3;" horiz-adv-x="1898" 
d="M938 -35q-123 0 -231 25.5t-190 70t-150 106.5t-114.5 133t-78.5 150.5t-46.5 159t-14.5 158.5q0 77 14.5 155t46 157.5t78.5 150.5t116 134t153.5 108.5t196.5 71.5t240 26q382 0 605 -207t223 -559q0 -175 -60 -329t-168 -267t-268.5 -178.5t-351.5 -65.5zM1024 68
q36 0 72 5t84.5 22.5t91 46t85.5 79.5t73.5 118t49.5 167.5t19 222.5q0 168 -46.5 309t-127.5 235.5t-190.5 147t-235.5 52.5q-76 0 -143.5 -17t-135 -62.5t-116.5 -115.5t-79 -185t-30 -262q0 -214 74 -386t219 -274.5t336 -102.5zM1229 1991q18 -32 59 -123
q15 -31 -10 -31q-2 0 -12.5 1t-25 1t-32.5 -2q-77 -10 -180 -47.5t-170 -73.5q-32 -16 -35 -16q-4 0 -8 3.5t-4 8.5q0 9 18 27q55 52 176.5 145t153.5 113q26 18 41 18q16 0 29 -24z" />
    <glyph glyph-name="Ocircumflex" unicode="&#xd4;" horiz-adv-x="1898" 
d="M938 -35q-123 0 -231 25.5t-190 70t-150 106.5t-114.5 133t-78.5 150.5t-46.5 159t-14.5 158.5q0 77 14.5 155t46 157.5t78.5 150.5t116 134t153.5 108.5t196.5 71.5t240 26q382 0 605 -207t223 -559q0 -175 -60 -329t-168 -267t-268.5 -178.5t-351.5 -65.5zM1024 68
q36 0 72 5t84.5 22.5t91 46t85.5 79.5t73.5 118t49.5 167.5t19 222.5q0 168 -46.5 309t-127.5 235.5t-190.5 147t-235.5 52.5q-76 0 -143.5 -17t-135 -62.5t-116.5 -115.5t-79 -185t-30 -262q0 -214 74 -386t219 -274.5t336 -102.5zM961 2009q4 0 36 -22q30 -26 244 -185
q29 -20 29 -28q0 -11 -10 -21l-60 -59q-15 -15 -26 -15q-8 0 -31 23q-24 26 -91.5 81t-88.5 70q-16 13 -27 13q-9 0 -31 -11q-129 -75 -217 -151q-28 -25 -41 -25q-8 0 -13 6t-5 15t18 31q16 18 131.5 125.5t139.5 128.5q27 24 43 24z" />
    <glyph glyph-name="Otilde" unicode="&#xd5;" horiz-adv-x="1898" 
d="M938 -35q-123 0 -231 25.5t-190 70t-150 106.5t-114.5 133t-78.5 150.5t-46.5 159t-14.5 158.5q0 77 14.5 155t46 157.5t78.5 150.5t116 134t153.5 108.5t196.5 71.5t240 26q382 0 605 -207t223 -559q0 -175 -60 -329t-168 -267t-268.5 -178.5t-351.5 -65.5zM1024 68
q36 0 72 5t84.5 22.5t91 46t85.5 79.5t73.5 118t49.5 167.5t19 222.5q0 168 -46.5 309t-127.5 235.5t-190.5 147t-235.5 52.5q-76 0 -143.5 -17t-135 -62.5t-116.5 -115.5t-79 -185t-30 -262q0 -214 74 -386t219 -274.5t336 -102.5zM1094 1700q-13 0 -25.5 1t-22.5 2.5
t-22 4.5t-19.5 5t-19 7t-17 7t-17 7.5t-15 7.5t-14.5 8t-13 7t-15.5 8.5t-17.5 9.5l-16 8t-19.5 8t-18.5 5.5t-22 4.5t-22 1q-36 0 -69.5 -17t-43 -27t-26.5 -29q-21 -21 -33 -21q-14 0 -14 14q0 18 16 39q36 56 92.5 107t120.5 51q12 0 23 -1t22 -3.5t19 -4t19 -6.5
t16.5 -7t17.5 -8.5t15.5 -8.5t16 -9t15.5 -9q79 -45 148 -45q75 0 124 61q20 27 33 27q6 0 11.5 -5t5.5 -12q0 -9 -13 -35q-23 -44 -80.5 -98.5t-119.5 -54.5z" />
    <glyph glyph-name="Odieresis" unicode="&#xd6;" horiz-adv-x="1898" 
d="M938 -35q-123 0 -231 25.5t-190 70t-150 106.5t-114.5 133t-78.5 150.5t-46.5 159t-14.5 158.5q0 77 14.5 155t46 157.5t78.5 150.5t116 134t153.5 108.5t196.5 71.5t240 26q382 0 605 -207t223 -559q0 -175 -60 -329t-168 -267t-268.5 -178.5t-351.5 -65.5zM1024 68
q36 0 72 5t84.5 22.5t91 46t85.5 79.5t73.5 118t49.5 167.5t19 222.5q0 168 -46.5 309t-127.5 235.5t-190.5 147t-235.5 52.5q-76 0 -143.5 -17t-135 -62.5t-116.5 -115.5t-79 -185t-30 -262q0 -214 74 -386t219 -274.5t336 -102.5zM1163 1700q-46 0 -69 29.5t-23 66.5
q0 36 24.5 66t69.5 30q41 0 69 -24.5t28 -65.5q0 -43 -27.5 -72.5t-71.5 -29.5zM731 1700q-46 0 -69 29.5t-23 66.5q0 34 24.5 64t69.5 30q41 0 68.5 -24t27.5 -64q0 -44 -27 -73t-71 -29z" />
    <glyph glyph-name="multiply" unicode="&#xd7;" horiz-adv-x="1124" 
d="M1016 137l-84 -84l-369 377l-368 -377l-84 84l368 379l-368 379l84 84l368 -379l369 379l84 -84l-369 -379z" />
    <glyph glyph-name="Oslash" unicode="&#xd8;" horiz-adv-x="1898" 
d="M418 125l-172 -180q-10 -11 -21 0l-57 51q-12 12 -4 20l172 183q-112 113 -167.5 263.5t-55.5 305.5q0 77 14.5 155t46 157.5t78.5 150.5t116 134t153.5 108.5t196.5 71.5t240 26q322 0 533 -150l154 162q11 11 28 -4l58 -49q11 -12 0 -23l-152 -159q207 -204 207 -543
q0 -175 -60 -329t-168 -267t-268.5 -178.5t-351.5 -65.5q-309 0 -520 160zM1401 1159l-834 -876q178 -217 459 -217q36 0 72 5t84.5 22.5t91 46t85.5 79.5t73.5 118t49.5 167.5t19 222.5q0 240 -100 432zM504 377l833 880q-82 103 -194.5 158t-241.5 55q-76 0 -143.5 -17
t-135.5 -62t-116.5 -115.5t-78.5 -185t-30 -261.5q0 -261 107 -452z" />
    <glyph glyph-name="Ugrave" unicode="&#xd9;" horiz-adv-x="1744" 
d="M248 649v299q0 368 -4 434q-3 55 -21 81t-67 36q-24 6 -80 6q-35 0 -35 19q0 18 45 18q60 0 167 -3t132 -3q21 0 116.5 3t135.5 3q45 0 45 -18q0 -19 -33 -19q-21 0 -59 -6q-40 -7 -56.5 -34t-19.5 -83q-4 -66 -4 -434v-286q0 -211 39.5 -324.5t120.5 -179.5
q102 -84 256 -84q172 0 282 110q76 76 97.5 194t21.5 314v256q0 368 -4 434q-3 55 -21 81t-67 36q-24 6 -74 6q-35 0 -35 19q0 18 43 18q29 0 64 -0.5t64 -1.5t53.5 -2t39.5 -2h15q6 0 96 3t137 3q43 0 43 -18q0 -19 -36 -19q-23 0 -60 -6q-40 -7 -56.5 -34t-19.5 -83
q-4 -66 -4 -434v-219q0 -98 -6.5 -174t-25.5 -161.5t-59.5 -156.5t-102.5 -124q-99 -86 -204 -117t-222 -31q-55 0 -99 3.5t-110.5 16t-129.5 43t-116 78.5q-182 164 -182 543zM1032 1714q0 -14 -22 -14q-20 0 -183 69t-233 101q-29 12 -48.5 27t-19.5 24q0 11 27 18
q65 20 137 52q32 14 39 14q5 0 8 -4t10.5 -17t14.5 -24q17 -24 90.5 -93.5t136.5 -115.5q7 -5 19 -12.5t18 -13t6 -11.5z" />
    <glyph glyph-name="Uacute" unicode="&#xda;" horiz-adv-x="1744" 
d="M248 649v299q0 368 -4 434q-3 55 -21 81t-67 36q-24 6 -80 6q-35 0 -35 19q0 18 45 18q60 0 167 -3t132 -3q21 0 116.5 3t135.5 3q45 0 45 -18q0 -19 -33 -19q-21 0 -59 -6q-40 -7 -56.5 -34t-19.5 -83q-4 -66 -4 -434v-286q0 -211 39.5 -324.5t120.5 -179.5
q102 -84 256 -84q172 0 282 110q76 76 97.5 194t21.5 314v256q0 368 -4 434q-3 55 -21 81t-67 36q-24 6 -74 6q-35 0 -35 19q0 18 43 18q29 0 64 -0.5t64 -1.5t53.5 -2t39.5 -2h15q6 0 96 3t137 3q43 0 43 -18q0 -19 -36 -19q-23 0 -60 -6q-40 -7 -56.5 -34t-19.5 -83
q-4 -66 -4 -434v-219q0 -98 -6.5 -174t-25.5 -161.5t-59.5 -156.5t-102.5 -124q-99 -86 -204 -117t-222 -31q-55 0 -99 3.5t-110.5 16t-129.5 43t-116 78.5q-182 164 -182 543zM1192 1991q18 -32 59 -123q15 -31 -10 -31q-2 0 -12.5 1t-25 1t-32.5 -2q-77 -10 -180 -47.5
t-170 -73.5q-32 -16 -35 -16q-4 0 -8 3.5t-4 8.5q0 8 19 27q55 52 176 145.5t153 112.5q26 18 41 18q16 0 29 -24z" />
    <glyph glyph-name="Ucircumflex" unicode="&#xdb;" horiz-adv-x="1744" 
d="M248 649v299q0 368 -4 434q-3 55 -21 81t-67 36q-24 6 -80 6q-35 0 -35 19q0 18 45 18q60 0 167 -3t132 -3q21 0 116.5 3t135.5 3q45 0 45 -18q0 -19 -33 -19q-21 0 -59 -6q-40 -7 -56.5 -34t-19.5 -83q-4 -66 -4 -434v-286q0 -211 39.5 -324.5t120.5 -179.5
q102 -84 256 -84q172 0 282 110q76 76 97.5 194t21.5 314v256q0 368 -4 434q-3 55 -21 81t-67 36q-24 6 -74 6q-35 0 -35 19q0 18 43 18q29 0 64 -0.5t64 -1.5t53.5 -2t39.5 -2h15q6 0 96 3t137 3q43 0 43 -18q0 -19 -36 -19q-23 0 -60 -6q-40 -7 -56.5 -34t-19.5 -83
q-4 -66 -4 -434v-219q0 -98 -6.5 -174t-25.5 -161.5t-59.5 -156.5t-102.5 -124q-99 -86 -204 -117t-222 -31q-55 0 -99 3.5t-110.5 16t-129.5 43t-116 78.5q-182 164 -182 543zM913 2009q5 0 37 -22q30 -26 244 -185q29 -20 29 -28q0 -10 -11 -21l-59 -59q-15 -15 -27 -15
q-7 0 -30 23q-24 26 -91.5 81t-89.5 70q-16 13 -26 13q-9 0 -31 -11q-129 -75 -217 -151q-28 -25 -41 -25q-8 0 -13 6t-5 15t18 31q16 18 131 126t139 128q27 24 43 24z" />
    <glyph glyph-name="Udieresis" unicode="&#xdc;" horiz-adv-x="1744" 
d="M248 649v299q0 368 -4 434q-3 55 -21 81t-67 36q-24 6 -80 6q-35 0 -35 19q0 18 45 18q60 0 167 -3t132 -3q21 0 116.5 3t135.5 3q45 0 45 -18q0 -19 -33 -19q-21 0 -59 -6q-40 -7 -56.5 -34t-19.5 -83q-4 -66 -4 -434v-286q0 -211 39.5 -324.5t120.5 -179.5
q102 -84 256 -84q172 0 282 110q76 76 97.5 194t21.5 314v256q0 368 -4 434q-3 55 -21 81t-67 36q-24 6 -74 6q-35 0 -35 19q0 18 43 18q29 0 64 -0.5t64 -1.5t53.5 -2t39.5 -2h15q6 0 96 3t137 3q43 0 43 -18q0 -19 -36 -19q-23 0 -60 -6q-40 -7 -56.5 -34t-19.5 -83
q-4 -66 -4 -434v-219q0 -98 -6.5 -174t-25.5 -161.5t-59.5 -156.5t-102.5 -124q-99 -86 -204 -117t-222 -31q-55 0 -99 3.5t-110.5 16t-129.5 43t-116 78.5q-182 164 -182 543zM1126 1700q-46 0 -69 29.5t-23 66.5q0 36 24.5 66t69.5 30q41 0 69 -24.5t28 -65.5
q0 -43 -27.5 -72.5t-71.5 -29.5zM694 1700q-46 0 -69 29.5t-23 66.5q0 34 24.5 64t69.5 30q41 0 69 -24t28 -64q0 -43 -27.5 -72.5t-71.5 -29.5z" />
    <glyph glyph-name="Yacute" unicode="&#xdd;" horiz-adv-x="1372" 
d="M565 356v168q0 52 -7 93t-15 63t-25 59q-11 26 -159.5 269.5t-200.5 320.5q-74 110 -142 150q-50 26 -86 26q-30 0 -30 19q0 18 39 18q15 0 117.5 -3t140.5 -3q15 0 91 3t128 3q30 0 30 -18q0 -8 -8.5 -12t-32.5 -10q-1 0 -2 -0.5t-2 -0.5q-13 -3 -20.5 -13.5t-7.5 -23.5
q0 -19 24 -69q32 -67 348 -613q10 25 152 279.5t156 284.5q28 63 28 106q0 41 -43 51q-37 8 -37 21q0 18 35 18t100 -3t93 -3q23 0 111.5 3t107.5 3q37 0 37 -16q0 -21 -39 -21q-44 0 -90 -24q-30 -14 -51.5 -34.5t-59.5 -66.5q-50 -60 -206 -321.5t-185 -329.5
q-15 -35 -22 -73.5t-8 -62.5t-1 -69v-168q0 -118 6 -204q7 -103 84 -113q58 -8 103 -8q33 0 33 -17q0 -20 -43 -20q-74 0 -185 3t-129 3q-22 0 -118.5 -3t-137.5 -3q-45 0 -45 20q0 17 33 17q36 0 72 8q56 11 63 113q6 86 6 204zM1026 1991q18 -32 59 -123q15 -31 -10 -31
q-2 0 -12 1t-24.5 1t-32.5 -2q-78 -10 -181 -47.5t-170 -73.5q-32 -16 -34 -16q-4 0 -8.5 3.5t-4.5 8.5q0 8 19 27q55 52 176 145.5t153 112.5q26 18 41 18q16 0 29 -24z" />
    <glyph glyph-name="Thorn" unicode="&#xde;" horiz-adv-x="1341" 
d="M336 588v360q0 368 -4 434q-3 55 -21 81t-67 36q-24 6 -80 6q-35 0 -35 19q0 18 45 18q61 0 166.5 -3t126.5 -3q19 0 123 3t164 3q39 0 39 -18q0 -19 -31 -19q-20 0 -78 -8q-89 -16 -92 -108q-4 -156 -4 -185q122 8 180 8q89 0 159.5 -12.5t116.5 -35.5t64 -35.5
t41 -32.5q39 -34 69.5 -101t30.5 -141q0 -217 -142 -352t-362 -135q-33 0 -43 2q-24 0 -24 18q0 23 57 23q96 0 182.5 96t86.5 233q0 201 -115 316q-32 32 -73 49t-65 19.5t-59 2.5q-61 0 -88 -12q-16 -5 -16 -39v-487q0 -350 10 -438q5 -50 21.5 -78t58.5 -33q58 -8 100 -8
q27 0 27 -17q0 -20 -41 -20q-70 0 -178.5 3t-126.5 3q-19 0 -116 -3t-142 -3q-41 0 -41 20q0 17 33 17q37 0 73 8q28 5 40.5 33t19.5 80q10 86 10 436z" />
    <glyph glyph-name="germandbls" unicode="&#xdf;" horiz-adv-x="2211" 
d="M489 -29q-192 0 -292 45q-22 9 -28.5 20t-6.5 40q0 86 10 231q0 45 23 45q18 0 18 -28q0 -41 16 -91q27 -89 108.5 -130.5t178.5 -41.5q114 0 182 63.5t68 158.5q0 68 -34.5 124.5t-143.5 120.5l-105 62q-155 91 -218.5 183.5t-63.5 211.5q0 156 131 253t323 97
q146 0 256 -28q25 -6 25 -23q0 -6 -1.5 -30.5t-3 -71.5t-1.5 -107q0 -55 -23 -55q-18 0 -18 31q0 19 -11 52t-36 62q-67 82 -201 82q-102 0 -174 -50t-72 -136q0 -64 38.5 -115.5t152.5 -114.5l73 -40q171 -94 241.5 -195.5t70.5 -226.5q0 -100 -42 -179.5t-138 -146.5
q-102 -72 -302 -72zM1595 -29q-192 0 -292 45q-22 9 -28.5 20t-6.5 40q0 86 10 231q0 45 22 45q19 0 19 -28q0 -41 16 -91q27 -89 108.5 -130.5t178.5 -41.5q114 0 182 63.5t68 158.5q0 68 -34.5 124.5t-143.5 120.5l-105 62q-155 91 -218.5 183.5t-63.5 211.5
q0 156 131 253t323 97q146 0 256 -28q25 -6 25 -23q0 -6 -1.5 -30.5t-3 -71.5t-1.5 -107q0 -55 -23 -55q-18 0 -18 31q0 19 -11 52t-36 62q-67 82 -201 82q-102 0 -174 -50t-72 -136q0 -64 38.5 -115.5t152.5 -114.5l73 -40q171 -94 241.5 -195.5t70.5 -226.5
q0 -100 -42.5 -179.5t-138.5 -146.5q-102 -72 -301 -72z" />
    <glyph glyph-name="agrave" unicode="&#xe0;" 
d="M797 432h-424q-12 0 -17 -12l-96 -234q-27 -64 -27 -106q0 -25 16 -37t56 -12h27q26 0 26 -19q0 -18 -28 -18q-30 0 -101.5 3t-99.5 3q-5 0 -38.5 -1.5t-81.5 -3t-89 -1.5q-33 0 -33 18q0 19 21 19q8 0 26.5 1t26.5 1q57 8 88 43.5t62 109.5l471 1096q29 70 53 70
q19 0 28.5 -11.5t24.5 -44.5q20 -45 209.5 -490t249.5 -583q25 -56 48 -94t43 -56.5t33.5 -25.5t28.5 -10q40 -6 68 -6q25 0 25 -19q0 -11 -14.5 -14.5t-63.5 -3.5q-194 0 -346 4q-3 0 -9 1q-42 5 -45 13q0 16 23 19q10 2 16 13.5t0 25.5l-139 350q-5 12 -18 12zM410 528
h348q12 0 8 11l-170 442q-5 16 -8 16q-5 0 -10 -16l-175 -440q-3 -6 -0.5 -9.5t7.5 -3.5zM799 1485q0 -7 -8 -11t-15 -4q-20 0 -183 69t-233 101q-28 12 -47.5 27.5t-19.5 24.5q0 12 26 18q76 23 138 51q34 15 39 15q4 0 7.5 -4.5t10 -17t14.5 -23.5q17 -24 91 -93.5
t137 -115.5q7 -5 19 -12.5t18 -13t6 -11.5z" />
    <glyph glyph-name="aacute" unicode="&#xe1;" 
d="M797 432h-424q-12 0 -17 -12l-96 -234q-27 -64 -27 -106q0 -25 16 -37t56 -12h27q26 0 26 -19q0 -18 -28 -18q-30 0 -101.5 3t-99.5 3q-5 0 -38.5 -1.5t-81.5 -3t-89 -1.5q-33 0 -33 18q0 19 21 19q8 0 26.5 1t26.5 1q57 8 88 43.5t62 109.5l471 1096q29 70 53 70
q19 0 28.5 -11.5t24.5 -44.5q20 -45 209.5 -490t249.5 -583q25 -56 48 -94t43 -56.5t33.5 -25.5t28.5 -10q40 -6 68 -6q25 0 25 -19q0 -11 -14.5 -14.5t-63.5 -3.5q-194 0 -346 4q-3 0 -9 1q-42 5 -45 13q0 16 23 19q10 2 16 13.5t0 25.5l-139 350q-5 12 -18 12zM410 528
h348q12 0 8 11l-170 442q-5 16 -8 16q-5 0 -10 -16l-175 -440q-3 -6 -0.5 -9.5t7.5 -3.5zM928 1761q18 -32 59 -123q14 -30 -10 -30q-2 0 -12.5 1t-25 1t-32.5 -2q-77 -10 -180 -47.5t-170 -73.5q-34 -17 -35 -17q-4 0 -8 4t-4 9q0 8 18 26q55 52 176.5 145t153.5 113
q27 19 41 19q10 0 15.5 -5t13.5 -20z" />
    <glyph glyph-name="acircumflex" unicode="&#xe2;" 
d="M797 432h-424q-12 0 -17 -12l-96 -234q-27 -64 -27 -106q0 -25 16 -37t56 -12h27q26 0 26 -19q0 -18 -28 -18q-30 0 -101.5 3t-99.5 3q-5 0 -38.5 -1.5t-81.5 -3t-89 -1.5q-33 0 -33 18q0 19 21 19q8 0 26.5 1t26.5 1q57 8 88 43.5t62 109.5l471 1096q29 70 53 70
q19 0 28.5 -11.5t24.5 -44.5q20 -45 209.5 -490t249.5 -583q25 -56 48 -94t43 -56.5t33.5 -25.5t28.5 -10q40 -6 68 -6q25 0 25 -19q0 -11 -14.5 -14.5t-63.5 -3.5q-194 0 -346 4q-3 0 -9 1q-42 5 -45 13q0 16 23 19q10 2 16 13.5t0 25.5l-139 350q-5 12 -18 12zM410 528
h348q12 0 8 11l-170 442q-5 16 -8 16q-5 0 -10 -16l-175 -440q-3 -6 -0.5 -9.5t7.5 -3.5zM659 1780q4 0 37 -23q22 -20 244 -184q29 -20 29 -29t-11 -20l-59 -60q-14 -14 -27 -14q-7 0 -30 23q-24 26 -91.5 81t-88.5 70q-15 12 -27 12q-11 0 -31 -10q-129 -75 -217 -151
q-28 -25 -41 -25q-18 0 -18 20q0 9 18 31q16 18 131 126t139 128q28 25 43 25z" />
    <glyph glyph-name="atilde" unicode="&#xe3;" 
d="M797 432h-424q-12 0 -17 -12l-96 -234q-27 -64 -27 -106q0 -25 16 -37t56 -12h27q26 0 26 -19q0 -18 -28 -18q-30 0 -101.5 3t-99.5 3q-5 0 -38.5 -1.5t-81.5 -3t-89 -1.5q-33 0 -33 18q0 19 21 19q8 0 26.5 1t26.5 1q57 8 88 43.5t62 109.5l471 1096q29 70 53 70
q19 0 28.5 -11.5t24.5 -44.5q20 -45 209.5 -490t249.5 -583q25 -56 48 -94t43 -56.5t33.5 -25.5t28.5 -10q40 -6 68 -6q25 0 25 -19q0 -11 -14.5 -14.5t-63.5 -3.5q-194 0 -346 4q-3 0 -9 1q-42 5 -45 13q0 16 23 19q10 2 16 13.5t0 25.5l-139 350q-5 12 -18 12zM410 528
h348q12 0 8 11l-170 442q-5 16 -8 16q-5 0 -10 -16l-175 -440q-3 -6 -0.5 -9.5t7.5 -3.5zM793 1470q-16 0 -31.5 2t-27 4t-26.5 7t-23 7.5t-22.5 9.5t-19 9t-19.5 10t-16 9q-2 1 -15.5 8.5t-17.5 9.5l-16 8t-19.5 8t-18.5 5.5t-22 4.5t-22 1q-12 0 -23 -1.5t-20.5 -4t-19 -7
t-16 -8t-15 -10t-12.5 -9.5t-11 -10l-9 -9t-7 -8l-6 -7q-20 -20 -33 -20q-14 0 -14 14q0 18 16 39q36 56 92.5 107t120.5 51q15 0 28.5 -1.5t28 -6t23 -6.5t24 -10t19.5 -10t21.5 -12.5t19.5 -11.5q79 -45 147 -45q75 0 125 62q19 26 33 26q6 0 11.5 -4.5t5.5 -11.5
q0 -9 -13 -35q-23 -44 -80.5 -99t-119.5 -55z" />
    <glyph glyph-name="adieresis" unicode="&#xe4;" 
d="M797 432h-424q-12 0 -17 -12l-96 -234q-27 -64 -27 -106q0 -25 16 -37t56 -12h27q26 0 26 -19q0 -18 -28 -18q-30 0 -101.5 3t-99.5 3q-5 0 -38.5 -1.5t-81.5 -3t-89 -1.5q-33 0 -33 18q0 19 21 19q8 0 26.5 1t26.5 1q57 8 88 43.5t62 109.5l471 1096q29 70 53 70
q19 0 28.5 -11.5t24.5 -44.5q20 -45 209.5 -490t249.5 -583q25 -56 48 -94t43 -56.5t33.5 -25.5t28.5 -10q40 -6 68 -6q25 0 25 -19q0 -11 -14.5 -14.5t-63.5 -3.5q-194 0 -346 4q-3 0 -9 1q-42 5 -45 13q0 16 23 19q10 2 16 13.5t0 25.5l-139 350q-5 12 -18 12zM410 528
h348q12 0 8 11l-170 442q-5 16 -8 16q-5 0 -10 -16l-175 -440q-3 -6 -0.5 -9.5t7.5 -3.5zM862 1470q-45 0 -68.5 30t-23.5 67q0 36 24.5 66t69.5 30q41 0 69 -24.5t28 -65.5q0 -44 -27.5 -73.5t-71.5 -29.5zM430 1470q-45 0 -68.5 30t-23.5 67q0 34 24.5 64t69.5 30
q41 0 68.5 -24t27.5 -64q0 -44 -27.5 -73.5t-70.5 -29.5z" />
    <glyph glyph-name="aring" unicode="&#xe5;" 
d="M797 432h-424q-12 0 -17 -12l-96 -234q-27 -64 -27 -106q0 -25 16 -37t56 -12h27q26 0 26 -19q0 -18 -28 -18q-30 0 -101.5 3t-99.5 3q-5 0 -38.5 -1.5t-81.5 -3t-89 -1.5q-33 0 -33 18q0 19 21 19q8 0 26.5 1t26.5 1q57 8 88 43.5t62 109.5l471 1096q29 70 53 70
q19 0 28.5 -11.5t24.5 -44.5q20 -45 209.5 -490t249.5 -583q25 -56 48 -94t43 -56.5t33.5 -25.5t28.5 -10q40 -6 68 -6q25 0 25 -19q0 -11 -14.5 -14.5t-63.5 -3.5q-194 0 -346 4q-3 0 -9 1q-42 5 -45 13q0 16 23 19q10 2 16 13.5t0 25.5l-139 350q-5 12 -18 12zM410 528
h348q12 0 8 11l-170 442q-5 16 -8 16q-5 0 -10 -16l-175 -440q-3 -6 -0.5 -9.5t7.5 -3.5zM594 1450q-83 0 -132.5 34.5t-49.5 88.5q0 72 81 126t199 54q88 0 141.5 -33t53.5 -86q1 -81 -91.5 -132.5t-201.5 -51.5zM537 1602q0 -44 31.5 -72.5t70.5 -28.5q51 0 87 32t36 75
q0 40 -28 67t-81 27q-42 0 -79 -26t-37 -74z" />
    <glyph glyph-name="ae" unicode="&#xe6;" horiz-adv-x="1712" 
d="M848 492v83q0 15 -17 15h-299q-21 0 -28 -12q-11 -17 -95.5 -159t-93.5 -157q-77 -126 -77 -172q0 -30 30 -45q32 -14 92 -14q12 0 19.5 -5.5t7.5 -13.5q0 -18 -35 -18q-67 0 -162 3t-104 3t-91.5 -3t-137.5 -3q-25 0 -25 18q0 19 25 19q49 0 80 14q30 13 55.5 30.5
t46.5 39.5t34 37t31 39.5t23 31.5q25 32 183 268t315 473t163 246q28 42 39 76q7 25 23 25q2 0 32 -2t64 -2q7 0 127 -0.5t225.5 -0.5t139.5 1q16 0 31 2t30 5t17 3t12.5 4t15.5 4q10 0 10 -16q0 -4 -2 -15.5t-5.5 -37t-6.5 -60.5q-1 -5 -3.5 -54t-4.5 -61q-2 -8 -8.5 -17
t-14.5 -9q-16 0 -16 22q0 39 -10 64q-7 19 -15.5 29t-33.5 20t-68 14q-46 6 -285 6q-12 0 -12 -16v-487q0 -19 12 -19q232 0 318 4q64 3 86 25q19 22 28 22q13 0 13 -14q0 -4 -1.5 -16t-5.5 -44.5t-8 -68.5q-6 -53 -6 -117q0 -37 -20 -37q-17 0 -17 15q-6 56 -8 63
q-14 61 -96 68q-53 6 -285 6q-10 0 -10 -16v-82v-267q0 -86 49.5 -111.5t192.5 -25.5q117 0 166 21q35 15 54 45t28 84q3 26 18 26q18 0 18 -41q0 -29 -8 -97t-14 -95q-9 -32 -25 -38.5t-73 -6.5q-72 0 -330 6q-88 4 -209 4q-10 0 -41 -1t-51 -1q-74 -4 -109 -4t-35 16
q0 21 23 21q39 0 63 6q26 6 37.5 28t16.5 64q8 74 8 363zM848 690v436h-8q-36 -57 -141 -232t-119 -200q-5 -10 -3.5 -13t11.5 -3h243q17 0 17 12z" />
    <glyph glyph-name="ccedilla" unicode="&#xe7;" horiz-adv-x="1443" 
d="M1354 293q0 -20 -13.5 -106.5t-25.5 -125.5q-6 -23 -15 -32.5t-32 -18.5q-97 -39 -326 -39h-43l-154 -112q114 -11 178 -53.5t64 -110.5q0 -34 -18.5 -69.5t-59 -70.5t-118 -57t-181.5 -22q-35 0 -35 20q0 27 54 27q58 0 115 38.5t57 98.5q0 126 -162 150q-45 6 -45 16
q0 7 33 31l164 123q-288 29 -467 180q-226 190 -226 514q0 50 9.5 104.5t31 119.5t65.5 131.5t105 121.5q103 90 241 137t331 47q114 0 262 -18q28 -4 89.5 -15t90.5 -14q27 -3 27 -20q0 -5 -1.5 -16t-3.5 -33t-4 -48q-2 -32 -3.5 -104t-2.5 -84q-3 -43 -24 -43
q-19 0 -19 37q-4 97 -69 162q-48 46 -138.5 74t-210.5 28q-119 0 -198.5 -23t-140.5 -75q-166 -144 -166 -453q0 -119 35 -221.5t92.5 -172.5t131.5 -120t151 -73t151 -23q130 0 199 17.5t120 74.5q51 58 62 117q3 21 7.5 28t14.5 7q9 0 15 -10t6 -21z" />
    <glyph glyph-name="egrave" unicode="&#xe8;" horiz-adv-x="1179" 
d="M295 500v307q0 314 -2 369q-3 44 -19 63t-59 31q-21 6 -72 6q-30 0 -30 18q0 17 41 17q52 0 146 -2t114 -2q7 0 135.5 -0.5t234 -0.5t121.5 1q10 1 76 10q4 1 14.5 4.5t14.5 3.5q12 0 12 -16q0 -4 -2.5 -15.5t-6 -37t-5.5 -60.5q0 -1 -4.5 -52t-6.5 -63q-7 -28 -20 -28
q-14 0 -14 22q0 38 -13 64q-9 19 -17.5 29t-33.5 20t-68 14q-62 8 -282 8q-12 0 -12 -16v-430q0 -19 12 -19q264 0 315 5q69 6 86 26q5 4 11.5 11t10 9.5t7.5 2.5q14 0 14 -19q0 -4 -14 -127q-8 -70 -8 -116q0 -39 -19 -39q-16 0 -16 14q0 4 -2 27t-4 36q-17 61 -101 68
q-66 8 -282 8q-10 0 -10 -18v-139q0 -17 -0.5 -77t-0.5 -109t1 -72q3 -88 53 -117t190 -29q116 0 170 23q33 15 51 44.5t27 84.5q6 26 21 26q16 0 16 -41q0 -30 -9 -98t-16 -94q-9 -32 -25 -38.5t-71 -6.5q-200 0 -332 6q-176 4 -209 4q-7 0 -42.5 -1t-59.5 -1
q-86 -4 -125 -4q-35 0 -35 18q0 19 29 19q39 0 63 6q26 6 37.5 28t16.5 64q8 74 8 371zM780 1485q0 -7 -7.5 -11t-14.5 -4q-20 0 -183 69t-233 101q-28 12 -48 27.5t-20 24.5q0 11 27 18q72 22 137 51q35 15 39 15q5 0 8 -4t10.5 -17t14.5 -24q17 -24 90.5 -93.5
t136.5 -115.5q7 -5 19 -12.5t18 -13t6 -11.5z" />
    <glyph glyph-name="eacute" unicode="&#xe9;" horiz-adv-x="1179" 
d="M295 500v307q0 314 -2 369q-3 44 -19 63t-59 31q-21 6 -72 6q-30 0 -30 18q0 17 41 17q52 0 146 -2t114 -2q7 0 135.5 -0.5t234 -0.5t121.5 1q10 1 76 10q4 1 14.5 4.5t14.5 3.5q12 0 12 -16q0 -4 -2.5 -15.5t-6 -37t-5.5 -60.5q0 -1 -4.5 -52t-6.5 -63q-7 -28 -20 -28
q-14 0 -14 22q0 38 -13 64q-9 19 -17.5 29t-33.5 20t-68 14q-62 8 -282 8q-12 0 -12 -16v-430q0 -19 12 -19q264 0 315 5q69 6 86 26q5 4 11.5 11t10 9.5t7.5 2.5q14 0 14 -19q0 -4 -14 -127q-8 -70 -8 -116q0 -39 -19 -39q-16 0 -16 14q0 4 -2 27t-4 36q-17 61 -101 68
q-66 8 -282 8q-10 0 -10 -18v-139q0 -17 -0.5 -77t-0.5 -109t1 -72q3 -88 53 -117t190 -29q116 0 170 23q33 15 51 44.5t27 84.5q6 26 21 26q16 0 16 -41q0 -30 -9 -98t-16 -94q-9 -32 -25 -38.5t-71 -6.5q-200 0 -332 6q-176 4 -209 4q-7 0 -42.5 -1t-59.5 -1
q-86 -4 -125 -4q-35 0 -35 18q0 19 29 19q39 0 63 6q26 6 37.5 28t16.5 64q8 74 8 371zM870 1761q23 -42 60 -123q14 -30 -10 -30q-2 0 -12.5 1t-25 1t-32.5 -2q-77 -10 -180 -47.5t-170 -73.5q-34 -17 -35 -17q-4 0 -8 4t-4 9q0 8 18 26q55 52 176.5 145t153.5 113
q27 19 41 19q10 0 15 -5t13 -20z" />
    <glyph glyph-name="ecircumflex" unicode="&#xea;" horiz-adv-x="1179" 
d="M295 500v307q0 314 -2 369q-3 44 -19 63t-59 31q-21 6 -72 6q-30 0 -30 18q0 17 41 17q52 0 146 -2t114 -2q7 0 135.5 -0.5t234 -0.5t121.5 1q10 1 76 10q4 1 14.5 4.5t14.5 3.5q12 0 12 -16q0 -4 -2.5 -15.5t-6 -37t-5.5 -60.5q0 -1 -4.5 -52t-6.5 -63q-7 -28 -20 -28
q-14 0 -14 22q0 38 -13 64q-9 19 -17.5 29t-33.5 20t-68 14q-62 8 -282 8q-12 0 -12 -16v-430q0 -19 12 -19q264 0 315 5q69 6 86 26q5 4 11.5 11t10 9.5t7.5 2.5q14 0 14 -19q0 -4 -14 -127q-8 -70 -8 -116q0 -39 -19 -39q-16 0 -16 14q0 4 -2 27t-4 36q-17 61 -101 68
q-66 8 -282 8q-10 0 -10 -18v-139q0 -17 -0.5 -77t-0.5 -109t1 -72q3 -88 53 -117t190 -29q116 0 170 23q33 15 51 44.5t27 84.5q6 26 21 26q16 0 16 -41q0 -30 -9 -98t-16 -94q-9 -32 -25 -38.5t-71 -6.5q-200 0 -332 6q-176 4 -209 4q-7 0 -42.5 -1t-59.5 -1
q-86 -4 -125 -4q-35 0 -35 18q0 19 29 19q39 0 63 6q26 6 37.5 28t16.5 64q8 74 8 371zM602 1780q4 0 37 -23q22 -20 244 -184q28 -19 28 -29t-10 -20l-59 -60q-14 -14 -27 -14q-8 0 -31 23q-24 26 -91.5 81t-88.5 70q-15 12 -26 12t-31 -10q-129 -75 -217 -151
q-28 -25 -41 -25q-8 0 -13.5 5.5t-5.5 14.5q0 8 19 31q16 18 131 126t139 128q28 25 43 25z" />
    <glyph glyph-name="edieresis" unicode="&#xeb;" horiz-adv-x="1179" 
d="M295 500v307q0 314 -2 369q-3 44 -19 63t-59 31q-21 6 -72 6q-30 0 -30 18q0 17 41 17q52 0 146 -2t114 -2q7 0 135.5 -0.5t234 -0.5t121.5 1q10 1 76 10q4 1 14.5 4.5t14.5 3.5q12 0 12 -16q0 -4 -2.5 -15.5t-6 -37t-5.5 -60.5q0 -1 -4.5 -52t-6.5 -63q-7 -28 -20 -28
q-14 0 -14 22q0 38 -13 64q-9 19 -17.5 29t-33.5 20t-68 14q-62 8 -282 8q-12 0 -12 -16v-430q0 -19 12 -19q264 0 315 5q69 6 86 26q5 4 11.5 11t10 9.5t7.5 2.5q14 0 14 -19q0 -4 -14 -127q-8 -70 -8 -116q0 -39 -19 -39q-16 0 -16 14q0 4 -2 27t-4 36q-17 61 -101 68
q-66 8 -282 8q-10 0 -10 -18v-139q0 -17 -0.5 -77t-0.5 -109t1 -72q3 -88 53 -117t190 -29q116 0 170 23q33 15 51 44.5t27 84.5q6 26 21 26q16 0 16 -41q0 -30 -9 -98t-16 -94q-9 -32 -25 -38.5t-71 -6.5q-200 0 -332 6q-176 4 -209 4q-7 0 -42.5 -1t-59.5 -1
q-86 -4 -125 -4q-35 0 -35 18q0 19 29 19q39 0 63 6q26 6 37.5 28t16.5 64q8 74 8 371zM823 1470q-45 0 -68.5 30t-23.5 67q0 36 24.5 66t69.5 30q41 0 69 -24.5t28 -65.5q0 -44 -27.5 -73.5t-71.5 -29.5zM391 1470q-45 0 -68.5 30t-23.5 67q0 34 24.5 64t69.5 30
q41 0 68.5 -24t27.5 -64q0 -44 -27.5 -73.5t-70.5 -29.5z" />
    <glyph glyph-name="igrave" unicode="&#xec;" horiz-adv-x="833" 
d="M295 500v307q0 314 -2 369q-3 43 -17 63t-45 29q-27 8 -65 8q-29 0 -29 20q0 15 43 15q36 0 127.5 -2t114.5 -2q19 0 106 2t125 2q37 0 37 -15q0 -20 -28 -20q-24 0 -54 -6q-36 -6 -50 -26.5t-17 -67.5q-4 -55 -4 -369v-307q0 -307 8 -381q5 -39 19.5 -57.5t51.5 -24.5
q38 -6 93 -6q14 0 21 -6t7 -13q0 -18 -35 -18q-68 0 -171 3t-119 3q-17 0 -106.5 -3t-129.5 -3q-35 0 -35 18q0 19 29 19q39 0 63 6q27 6 38 25t16 59q8 72 8 379zM567 1485q0 -7 -7.5 -11t-14.5 -4q-20 0 -183 69t-233 101q-28 12 -48 27.5t-20 24.5q0 11 27 18
q72 22 137 51q35 15 39 15q5 0 8 -4t10.5 -17t14.5 -24q17 -24 90.5 -93.5t136.5 -115.5q7 -5 19 -12.5t18 -13t6 -11.5z" />
    <glyph glyph-name="iacute" unicode="&#xed;" horiz-adv-x="833" 
d="M295 500v307q0 314 -2 369q-3 43 -17 63t-45 29q-27 8 -65 8q-29 0 -29 20q0 15 43 15q36 0 127.5 -2t114.5 -2q19 0 106 2t125 2q37 0 37 -15q0 -20 -28 -20q-24 0 -54 -6q-36 -6 -50 -26.5t-17 -67.5q-4 -55 -4 -369v-307q0 -307 8 -381q5 -39 19.5 -57.5t51.5 -24.5
q38 -6 93 -6q14 0 21 -6t7 -13q0 -18 -35 -18q-68 0 -171 3t-119 3q-17 0 -106.5 -3t-129.5 -3q-35 0 -35 18q0 19 29 19q39 0 63 6q27 6 38 25t16 59q8 72 8 379zM696 1761q23 -42 60 -123q14 -30 -11 -30q-2 0 -12 1t-24.5 1t-32.5 -2q-77 -10 -180 -47.5t-170 -73.5
q-34 -17 -35 -17q-4 0 -8 4t-4 9q0 8 18 26q55 52 176.5 145t153.5 113q27 19 41 19q10 0 15 -5t13 -20z" />
    <glyph glyph-name="icircumflex" unicode="&#xee;" horiz-adv-x="833" 
d="M295 500v307q0 314 -2 369q-3 43 -17 63t-45 29q-27 8 -65 8q-29 0 -29 20q0 15 43 15q36 0 127.5 -2t114.5 -2q19 0 106 2t125 2q37 0 37 -15q0 -20 -28 -20q-24 0 -54 -6q-36 -6 -50 -26.5t-17 -67.5q-4 -55 -4 -369v-307q0 -307 8 -381q5 -39 19.5 -57.5t51.5 -24.5
q38 -6 93 -6q14 0 21 -6t7 -13q0 -18 -35 -18q-68 0 -171 3t-119 3q-17 0 -106.5 -3t-129.5 -3q-35 0 -35 18q0 19 29 19q39 0 63 6q27 6 38 25t16 59q8 72 8 379zM428 1780q4 0 37 -23q22 -20 244 -184q28 -19 28 -29t-10 -20l-59 -60q-14 -14 -27 -14q-8 0 -31 23
q-24 26 -91.5 81t-88.5 70q-15 12 -27 12q-10 0 -30 -10q-129 -75 -217 -151q-28 -25 -41 -25q-8 0 -13.5 5.5t-5.5 14.5q0 8 19 31q16 18 131 126t139 128q28 25 43 25z" />
    <glyph glyph-name="idieresis" unicode="&#xef;" horiz-adv-x="833" 
d="M295 500v307q0 314 -2 369q-3 43 -17 63t-45 29q-27 8 -65 8q-29 0 -29 20q0 15 43 15q36 0 127.5 -2t114.5 -2q19 0 106 2t125 2q37 0 37 -15q0 -20 -28 -20q-24 0 -54 -6q-36 -6 -50 -26.5t-17 -67.5q-4 -55 -4 -369v-307q0 -307 8 -381q5 -39 19.5 -57.5t51.5 -24.5
q38 -6 93 -6q14 0 21 -6t7 -13q0 -18 -35 -18q-68 0 -171 3t-119 3q-17 0 -106.5 -3t-129.5 -3q-35 0 -35 18q0 19 29 19q39 0 63 6q27 6 38 25t16 59q8 72 8 379zM631 1470q-45 0 -68.5 30t-23.5 67q0 36 24.5 66t69.5 30q41 0 68.5 -24.5t27.5 -65.5q0 -44 -27.5 -73.5
t-70.5 -29.5zM199 1470q-46 0 -69.5 30t-23.5 67q0 34 25 64t70 30q41 0 68.5 -24t27.5 -64q0 -44 -27.5 -73.5t-70.5 -29.5z" />
    <glyph glyph-name="eth" unicode="&#xf0;" horiz-adv-x="1705" 
d="M295 610h-182q-13 0 -9 21l9 61q3 17 24 17h158v98q0 314 -2 369q-3 44 -19 63t-59 31q-21 6 -72 6q-30 0 -30 18q0 17 41 17q52 0 146 -2t114 -2q21 0 126.5 2t166.5 2q66 0 102 -0.5t104.5 -4t113 -11t107 -22t109 -35t97.5 -53t92 -73.5q174 -174 174 -442
q0 -153 -55 -279t-140 -211q-76 -74 -233.5 -137t-343.5 -63q-97 0 -240 10q-33 2 -77 4.5t-72.5 4t-41.5 1.5q-7 0 -42.5 -1t-59.5 -1q-86 -4 -125 -4q-35 0 -35 18q0 19 29 19q39 0 63 6q26 6 37.5 28t16.5 64q8 74 8 371v110zM537 711h360q15 0 12 -21l-10 -65
q-3 -17 -20 -17h-342v-80q0 -190 4 -256q5 -109 20 -131q51 -71 234 -71q141 0 236.5 27.5t172.5 95.5q144 124 144 428q0 150 -50.5 259t-121.5 175q-59 55 -125.5 90.5t-134.5 50.5t-118 20t-112 5q-90 0 -125 -13q-22 -8 -22 -34q-2 -59 -2 -340v-123z" />
    <glyph glyph-name="ntilde" unicode="&#xf1;" horiz-adv-x="1722" 
d="M387 942l21 -711q3 -96 18 -137t43 -51q37 -12 94 -12q31 0 31 -19q0 -18 -41 -18q-69 0 -148.5 3t-85.5 3q-5 0 -34.5 -1.5t-74.5 -3t-85 -1.5q-41 0 -41 18q0 8 8.5 13.5t20.5 5.5q49 0 82 8q34 9 43.5 50t11.5 161l16 1032q0 26 8.5 42.5t22.5 16.5q10 0 22.5 -8
t21.5 -16t27 -26l7 -7q1 -1 59.5 -60.5t128 -129.5t173.5 -173.5t194 -191.5q52 -51 145 -145t163 -165t81 -81h8l-18 774q-1 77 -15 109.5t-47 44.5q-27 10 -94 10q-29 0 -29 18q0 17 45 17q54 0 135.5 -2t94.5 -2q1 0 62 2t114 2q41 0 41 -17q0 -18 -31 -18q-32 0 -55 -6
q-37 -11 -51 -41t-15 -103l-20 -1097q0 -27 -8.5 -41.5t-20.5 -14.5q-37 0 -74 37q-151 139 -526 502q-86 82 -184 183t-162 168.5t-76 78.5h-6zM1006 1470q-16 0 -31.5 2t-27 4t-26.5 7t-23 7.5t-22.5 9.5t-19 9t-19.5 10t-16 9q-2 1 -15.5 8.5t-17.5 9.5l-16 8t-19.5 8
t-18.5 5.5t-22 4.5t-22 1q-12 0 -23 -1.5t-20.5 -4t-19 -7t-16 -8t-15 -10t-12.5 -9.5t-11 -10l-9 -9l-8 -8l-5 -7q-20 -20 -33 -20q-14 0 -14 14q0 18 16 39q36 56 92.5 107t120.5 51q15 0 28.5 -1.5t28 -6t23 -6.5t24 -10t19.5 -10t21.5 -12.5t19.5 -11.5q79 -45 147 -45
q75 0 125 62q19 26 33 26q6 0 11.5 -4.5t5.5 -11.5q0 -9 -13 -35q-23 -44 -80.5 -99t-119.5 -55z" />
    <glyph glyph-name="ograve" unicode="&#xf2;" horiz-adv-x="1693" 
d="M836 -29q-151 0 -277 41.5t-209.5 109.5t-141.5 157.5t-84 183.5t-26 190q0 93 25.5 185.5t84 183t143.5 159.5t215 111.5t288 42.5q341 0 539 -175.5t198 -475.5q0 -149 -53 -279.5t-149.5 -226.5t-239 -151.5t-313.5 -55.5zM909 66q32 0 63.5 4.5t74 19t79 38.5
t74 66.5t64 99t43 141t16.5 186.5q0 141 -40.5 259t-111 197t-166 122.5t-204.5 43.5q-65 0 -123 -14t-117 -51.5t-101 -95.5t-68.5 -154.5t-26.5 -220.5q0 -180 64 -324.5t189 -230.5t291 -86zM997 1485q0 -7 -7.5 -11t-14.5 -4q-20 0 -183 69t-233 101q-28 12 -47.5 27.5
t-19.5 24.5q0 12 26 18q72 22 137 51q35 15 39 15q5 0 8 -4t10.5 -17t14.5 -24q17 -24 90.5 -93.5t136.5 -115.5q7 -5 19 -12.5t18 -13t6 -11.5z" />
    <glyph glyph-name="oacute" unicode="&#xf3;" horiz-adv-x="1693" 
d="M836 -29q-151 0 -277 41.5t-209.5 109.5t-141.5 157.5t-84 183.5t-26 190q0 93 25.5 185.5t84 183t143.5 159.5t215 111.5t288 42.5q341 0 539 -175.5t198 -475.5q0 -149 -53 -279.5t-149.5 -226.5t-239 -151.5t-313.5 -55.5zM909 66q32 0 63.5 4.5t74 19t79 38.5
t74 66.5t64 99t43 141t16.5 186.5q0 141 -40.5 259t-111 197t-166 122.5t-204.5 43.5q-65 0 -123 -14t-117 -51.5t-101 -95.5t-68.5 -154.5t-26.5 -220.5q0 -180 64 -324.5t189 -230.5t291 -86zM1126 1761q23 -42 60 -123q14 -30 -10 -30q-2 0 -12.5 1t-25 1t-32.5 -2
q-77 -10 -180 -47.5t-170 -73.5q-34 -17 -35 -17q-4 0 -8 4t-4 9q0 8 18 26q55 52 176.5 145t153.5 113q27 19 41 19q10 0 15 -5t13 -20z" />
    <glyph glyph-name="ocircumflex" unicode="&#xf4;" horiz-adv-x="1693" 
d="M836 -29q-151 0 -277 41.5t-209.5 109.5t-141.5 157.5t-84 183.5t-26 190q0 93 25.5 185.5t84 183t143.5 159.5t215 111.5t288 42.5q341 0 539 -175.5t198 -475.5q0 -149 -53 -279.5t-149.5 -226.5t-239 -151.5t-313.5 -55.5zM909 66q32 0 63.5 4.5t74 19t79 38.5
t74 66.5t64 99t43 141t16.5 186.5q0 141 -40.5 259t-111 197t-166 122.5t-204.5 43.5q-65 0 -123 -14t-117 -51.5t-101 -95.5t-68.5 -154.5t-26.5 -220.5q0 -180 64 -324.5t189 -230.5t291 -86zM858 1780q4 0 37 -23q22 -20 244 -184q28 -19 28 -29t-10 -20l-59 -60
q-14 -14 -27 -14q-8 0 -31 23q-24 26 -91.5 81t-88.5 70q-15 12 -26 12t-31 -10q-129 -75 -217 -151q-28 -25 -41 -25q-8 0 -13.5 5.5t-5.5 14.5q0 8 19 31q16 18 131 126t139 128q28 25 43 25z" />
    <glyph glyph-name="otilde" unicode="&#xf5;" horiz-adv-x="1693" 
d="M836 -29q-151 0 -277 41.5t-209.5 109.5t-141.5 157.5t-84 183.5t-26 190q0 93 25.5 185.5t84 183t143.5 159.5t215 111.5t288 42.5q341 0 539 -175.5t198 -475.5q0 -149 -53 -279.5t-149.5 -226.5t-239 -151.5t-313.5 -55.5zM909 66q32 0 63.5 4.5t74 19t79 38.5
t74 66.5t64 99t43 141t16.5 186.5q0 141 -40.5 259t-111 197t-166 122.5t-204.5 43.5q-65 0 -123 -14t-117 -51.5t-101 -95.5t-68.5 -154.5t-26.5 -220.5q0 -180 64 -324.5t189 -230.5t291 -86zM991 1470q-18 0 -34.5 1.5t-33 6.5t-26.5 7.5t-27.5 10.5t-21.5 10t-22 12
l-19 10q-2 1 -15.5 8.5t-17.5 9.5l-16 8t-19.5 8t-18.5 5.5t-22 4.5t-22 1q-12 0 -23 -1.5t-20.5 -4t-19 -7t-16 -8t-15 -10t-12.5 -9.5t-11 -10l-9 -9l-8 -8l-5 -7q-20 -20 -33 -20q-15 0 -15 14q0 16 17 39q36 56 92.5 107t120.5 51q15 0 28.5 -1.5t28 -6t23 -6.5t24 -10
t19.5 -10t21.5 -12.5t19.5 -11.5q79 -45 147 -45q75 0 125 62q19 26 33 26q16 0 16 -16q0 -11 -12 -35q-23 -44 -81 -99t-120 -55z" />
    <glyph glyph-name="odieresis" unicode="&#xf6;" horiz-adv-x="1693" 
d="M836 -29q-151 0 -277 41.5t-209.5 109.5t-141.5 157.5t-84 183.5t-26 190q0 93 25.5 185.5t84 183t143.5 159.5t215 111.5t288 42.5q341 0 539 -175.5t198 -475.5q0 -149 -53 -279.5t-149.5 -226.5t-239 -151.5t-313.5 -55.5zM909 66q32 0 63.5 4.5t74 19t79 38.5
t74 66.5t64 99t43 141t16.5 186.5q0 141 -40.5 259t-111 197t-166 122.5t-204.5 43.5q-65 0 -123 -14t-117 -51.5t-101 -95.5t-68.5 -154.5t-26.5 -220.5q0 -180 64 -324.5t189 -230.5t291 -86zM1061 1470q-45 0 -68.5 30t-23.5 67q0 36 24.5 66t69.5 30q41 0 68.5 -24.5
t27.5 -65.5q0 -44 -27.5 -73.5t-70.5 -29.5zM629 1470q-45 0 -68.5 30t-23.5 67q0 34 24.5 64t69.5 30q41 0 68.5 -24t27.5 -64q0 -44 -27.5 -73.5t-70.5 -29.5z" />
    <glyph glyph-name="divide" unicode="&#xf7;" horiz-adv-x="1124" 
d="M668 860q0 -50 -30.5 -82.5t-80.5 -32.5h-2q-46 0 -76 32.5t-30 82.5q0 51 30.5 83t79.5 32t79 -32t30 -83zM1042 457h-960v125h960v-125zM668 178q0 -50 -30.5 -82.5t-80.5 -32.5h-2q-46 0 -76 32.5t-30 82.5q0 51 30.5 83t79.5 32t79 -32t30 -83z" />
    <glyph glyph-name="oslash" unicode="&#xf8;" horiz-adv-x="1683" 
d="M371 104l-152 -153q-9 -9 -18 0l-56 51q-13 9 -4 18l154 148q-98 97 -147.5 225.5t-49.5 259.5q0 93 25 185.5t82.5 183t141.5 159.5t212.5 111.5t284.5 42.5q289 0 473 -127l135 144q10 10 25 -4l51 -54q9 -9 0 -18l-133 -133q184 -169 184 -459q0 -149 -52.5 -279.5
t-147.5 -226.5t-236 -151.5t-309 -55.5q-306 0 -463 133zM1229 975l-719 -729q139 -183 397 -183q31 0 62 4.5t72.5 19.5t78 39t73 66.5t62.5 99t42 140.5t16 186q0 202 -84 357zM455 328l721 733q-130 180 -379 180q-64 0 -121 -13.5t-115 -50.5t-99.5 -95t-68 -155
t-26.5 -222q0 -219 88 -377z" />
    <glyph glyph-name="ugrave" unicode="&#xf9;" horiz-adv-x="1556" 
d="M217 551v256q0 341 -2 369q-3 45 -18.5 63.5t-59.5 30.5q-21 6 -69 6q-31 0 -31 18q0 17 39 17q53 0 151 -2t119 -2q20 0 108 2t124 2q38 0 38 -17q0 -18 -28 -18q-18 0 -53 -6t-49 -26.5t-17 -67.5q-4 -55 -4 -369v-244q0 -181 33 -273.5t104 -148.5q88 -69 227 -69
q147 0 242 92q36 34 58.5 78.5t32 105t12 110t2.5 130.5v219q0 231 -5 369q-3 45 -18 63.5t-57 30.5q-21 6 -66 6q-31 0 -31 18q0 17 37 17q26 0 57.5 -0.5t58 -1t49 -1t36.5 -0.5l14 -1q4 0 87 2t124 2q37 0 37 -17q0 -18 -31 -18q-18 0 -53 -6q-36 -6 -49 -26t-16 -68
q-4 -110 -4 -369v-186q0 -84 -6 -149t-22.5 -137.5t-52.5 -133t-91 -105.5q-150 -125 -381 -125q-276 0 -412 119q-164 143 -164 461zM930 1485q0 -7 -8 -11t-15 -4q-20 0 -181.5 68.5t-233.5 101.5q-28 12 -48 27.5t-20 24.5q0 11 27 18q72 22 137 51q35 15 39 15t7.5 -4.5
t10 -17t14.5 -23.5q17 -24 91 -93.5t137 -115.5q7 -5 19 -12.5t18 -13t6 -11.5z" />
    <glyph glyph-name="uacute" unicode="&#xfa;" horiz-adv-x="1556" 
d="M217 551v256q0 341 -2 369q-3 45 -18.5 63.5t-59.5 30.5q-21 6 -69 6q-31 0 -31 18q0 17 39 17q53 0 151 -2t119 -2q20 0 108 2t124 2q38 0 38 -17q0 -18 -28 -18q-18 0 -53 -6t-49 -26.5t-17 -67.5q-4 -55 -4 -369v-244q0 -181 33 -273.5t104 -148.5q88 -69 227 -69
q147 0 242 92q36 34 58.5 78.5t32 105t12 110t2.5 130.5v219q0 231 -5 369q-3 45 -18 63.5t-57 30.5q-21 6 -66 6q-31 0 -31 18q0 17 37 17q26 0 57.5 -0.5t58 -1t49 -1t36.5 -0.5l14 -1q4 0 87 2t124 2q37 0 37 -17q0 -18 -31 -18q-18 0 -53 -6q-36 -6 -49 -26t-16 -68
q-4 -110 -4 -369v-186q0 -84 -6 -149t-22.5 -137.5t-52.5 -133t-91 -105.5q-150 -125 -381 -125q-276 0 -412 119q-164 143 -164 461zM1059 1761q18 -32 59 -123q14 -30 -10 -30q-2 0 -12.5 1t-25 1t-32.5 -2q-77 -10 -180 -47.5t-170 -73.5q-34 -17 -35 -17q-4 0 -8 4t-4 9
q0 8 18 26q55 52 176.5 145t153.5 113q27 19 41 19q10 0 15.5 -5t13.5 -20z" />
    <glyph glyph-name="ucircumflex" unicode="&#xfb;" horiz-adv-x="1556" 
d="M217 551v256q0 341 -2 369q-3 45 -18.5 63.5t-59.5 30.5q-21 6 -69 6q-31 0 -31 18q0 17 39 17q53 0 151 -2t119 -2q20 0 108 2t124 2q38 0 38 -17q0 -18 -28 -18q-18 0 -53 -6t-49 -26.5t-17 -67.5q-4 -55 -4 -369v-244q0 -181 33 -273.5t104 -148.5q88 -69 227 -69
q147 0 242 92q36 34 58.5 78.5t32 105t12 110t2.5 130.5v219q0 231 -5 369q-3 45 -18 63.5t-57 30.5q-21 6 -66 6q-31 0 -31 18q0 17 37 17q26 0 57.5 -0.5t58 -1t49 -1t36.5 -0.5l14 -1q4 0 87 2t124 2q37 0 37 -17q0 -18 -31 -18q-18 0 -53 -6q-36 -6 -49 -26t-16 -68
q-4 -110 -4 -369v-186q0 -84 -6 -149t-22.5 -137.5t-52.5 -133t-91 -105.5q-150 -125 -381 -125q-276 0 -412 119q-164 143 -164 461zM791 1780q3 0 36 -23q22 -20 244 -184q29 -20 29 -29q0 -10 -10 -20l-60 -60q-14 -14 -26 -14q-8 0 -31 23q-24 26 -91.5 81t-88.5 70
q-15 12 -27 12q-11 0 -31 -10q-129 -75 -217 -151q-28 -25 -41 -25q-18 0 -18 20q0 9 18 31q16 18 131.5 125.5t139.5 128.5q28 25 43 25z" />
    <glyph glyph-name="udieresis" unicode="&#xfc;" horiz-adv-x="1556" 
d="M217 551v256q0 341 -2 369q-3 45 -18.5 63.5t-59.5 30.5q-21 6 -69 6q-31 0 -31 18q0 17 39 17q53 0 151 -2t119 -2q20 0 108 2t124 2q38 0 38 -17q0 -18 -28 -18q-18 0 -53 -6t-49 -26.5t-17 -67.5q-4 -55 -4 -369v-244q0 -181 33 -273.5t104 -148.5q88 -69 227 -69
q147 0 242 92q36 34 58.5 78.5t32 105t12 110t2.5 130.5v219q0 231 -5 369q-3 45 -18 63.5t-57 30.5q-21 6 -66 6q-31 0 -31 18q0 17 37 17q26 0 57.5 -0.5t58 -1t49 -1t36.5 -0.5l14 -1q4 0 87 2t124 2q37 0 37 -17q0 -18 -31 -18q-18 0 -53 -6q-36 -6 -49 -26t-16 -68
q-4 -110 -4 -369v-186q0 -84 -6 -149t-22.5 -137.5t-52.5 -133t-91 -105.5q-150 -125 -381 -125q-276 0 -412 119q-164 143 -164 461zM1012 1470q-45 0 -68.5 30t-23.5 67q0 36 24.5 66t69.5 30q41 0 68.5 -24.5t27.5 -65.5q0 -44 -27.5 -73.5t-70.5 -29.5zM580 1470
q-46 0 -69.5 30t-23.5 67q0 34 25 64t70 30q41 0 68.5 -24t27.5 -64q0 -44 -27.5 -73.5t-70.5 -29.5z" />
    <glyph glyph-name="yacute" unicode="&#xfd;" horiz-adv-x="1208" 
d="M489 303v143q0 65 -9 102t-31 81q-9 19 -140 223t-182 278q-71 99 -117 123q-44 23 -76 23q-26 0 -26 18q0 17 35 17q12 0 102 -2t123 -2q14 0 86.5 2t118.5 2q26 0 26 -17q0 -3 -0.5 -5t-2.5 -4t-4 -3t-6 -2.5t-7 -2t-9.5 -2.5t-11.5 -3q-24 -7 -24 -27t22 -59
q16 -26 149.5 -255.5t149.5 -254.5q1 2 127 218.5t142 248.5q26 56 26 92q0 31 -39 39q-2 0 -6 1l-6 1.5t-5 1.5t-5 2t-4 2.5t-3 3t-2 3.5t-1 5q0 17 30 17t90 -2t86 -2q20 0 98 2t95 2q33 0 33 -15q0 -20 -35 -20q-31 0 -78 -21q-28 -13 -45.5 -28.5t-48.5 -52.5
q-43 -51 -184 -276t-166 -282q-6 -13 -10 -26t-6.5 -27t-4 -23.5t-2 -25.5t-0.5 -23v-25.5v-23.5v-139q0 -100 4 -174q3 -41 19.5 -63.5t54.5 -28.5q41 -6 90 -6q14 0 22.5 -6t8.5 -13q0 -18 -39 -18q-65 0 -166 3t-117 3q-20 0 -108 -3t-125 -3q-39 0 -39 18q0 7 7.5 13
t21.5 6q39 0 63 6q49 11 55 92q6 74 6 174zM885 1761q18 -32 59 -123q14 -30 -10 -30q-2 0 -12.5 1t-25 1t-32.5 -2q-77 -10 -180 -47.5t-170 -73.5q-34 -17 -35 -17q-4 0 -8 4t-4 9q0 8 18 26q55 52 176.5 145t153.5 113q27 19 41 19q10 0 15.5 -5t13.5 -20z" />
    <glyph glyph-name="thorn" unicode="&#xfe;" horiz-adv-x="1224" 
d="M295 500v307q0 314 -2 369q-3 44 -19 64t-59 30q-21 6 -72 6q-30 0 -30 18q0 17 41 17q53 0 146 -2t112 -2q16 0 115.5 2t152.5 2q35 0 35 -17q0 -7 -9 -12.5t-20 -5.5q-18 0 -68 -8q-42 -6 -60.5 -27.5t-20.5 -60.5q-2 -66 -2 -156q80 6 157 6q248 0 361 -98
q35 -30 61.5 -86.5t26.5 -120.5q0 -184 -126.5 -299t-326.5 -115q-45 0 -53 2q-23 0 -23 17q0 22 52 22q91 0 167 79.5t76 197.5q0 166 -100 262q-63 59 -182 59q-52 0 -76 -12q-14 -2 -14 -33v-405q0 -297 8 -373q5 -42 18.5 -63t50.5 -27q40 -6 88 -6q10 0 17.5 -6.5
t7.5 -12.5q0 -18 -37 -18q-62 0 -165.5 3t-119.5 3q-17 0 -102 -3t-125 -3q-35 0 -35 18q0 19 29 19q39 0 63 6q26 6 37.5 28t16.5 64q8 74 8 371z" />
    <glyph glyph-name="ydieresis" unicode="&#xff;" horiz-adv-x="1208" 
d="M489 303v143q0 65 -9 102t-31 81q-9 19 -140 223t-182 278q-71 99 -117 123q-44 23 -76 23q-26 0 -26 18q0 17 35 17q12 0 102 -2t123 -2q14 0 86.5 2t118.5 2q26 0 26 -17q0 -3 -0.5 -5t-2.5 -4t-4 -3t-6 -2.5t-7 -2t-9.5 -2.5t-11.5 -3q-24 -7 -24 -27t22 -59
q16 -26 149.5 -255.5t149.5 -254.5q1 2 127 218.5t142 248.5q26 56 26 92q0 31 -39 39q-2 0 -6 1l-6 1.5t-5 1.5t-5 2t-4 2.5t-3 3t-2 3.5t-1 5q0 17 30 17t90 -2t86 -2q20 0 98 2t95 2q33 0 33 -15q0 -20 -35 -20q-31 0 -78 -21q-28 -13 -45.5 -28.5t-48.5 -52.5
q-43 -51 -184 -276t-166 -282q-6 -13 -10 -26t-6.5 -27t-4 -23.5t-2 -25.5t-0.5 -23v-25.5v-23.5v-139q0 -100 4 -174q3 -41 19.5 -63.5t54.5 -28.5q41 -6 90 -6q14 0 22.5 -6t8.5 -13q0 -18 -39 -18q-65 0 -166 3t-117 3q-20 0 -108 -3t-125 -3q-39 0 -39 18q0 7 7.5 13
t21.5 6q39 0 63 6q49 11 55 92q6 74 6 174zM819 1470q-45 0 -68.5 30t-23.5 67q0 36 24.5 66t69.5 30q41 0 69 -24.5t28 -65.5q0 -44 -27.5 -73.5t-71.5 -29.5zM387 1470q-45 0 -68.5 30t-23.5 67q0 34 24.5 64t69.5 30q41 0 68.5 -24t27.5 -64q0 -44 -27.5 -73.5
t-70.5 -29.5z" />
    <glyph glyph-name="Amacron" unicode="&#x100;" horiz-adv-x="1433" 
d="M874 528h-456q-14 0 -19 -16l-110 -293q-31 -79 -31 -125q0 -63 82 -63h31q18 0 24 -4t6 -13q0 -20 -34 -20q-33 0 -109.5 3t-107.5 3q-1 0 -90 -3t-152 -3q-39 0 -39 20q0 17 25 17q31 0 63 4q65 8 102 52t72 132l514 1286q20 48 31.5 65t25.5 17q13 0 25 -15t27 -50
q20 -46 227.5 -567t280.5 -693q28 -65 54.5 -110t49.5 -67.5t40 -31.5t36 -14q41 -8 86 -8q26 0 26 -17q0 -12 -18.5 -16t-75.5 -4q-223 0 -387 4q-53 3 -59 10q-2 2 -2 6q0 16 28 19q12 3 19 16.5t0 30.5l-164 434q-6 14 -21 14zM459 631h377q14 0 10 12l-184 506
q-4 18 -11 18t-12 -18l-188 -504q-3 -14 8 -14zM952 1755h-491q-11 0 -14.5 3.5t-2.5 10.5l17 74q5 19 22 19h492q22 0 16 -21l-16 -74q-3 -12 -23 -12z" />
    <glyph glyph-name="amacron" unicode="&#x101;" 
d="M797 432h-424q-12 0 -17 -12l-96 -234q-27 -64 -27 -106q0 -25 16 -37t56 -12h27q26 0 26 -19q0 -18 -28 -18q-30 0 -101.5 3t-99.5 3q-5 0 -38.5 -1.5t-81.5 -3t-89 -1.5q-33 0 -33 18q0 19 21 19q8 0 26.5 1t26.5 1q57 8 88 43.5t62 109.5l471 1096q29 70 53 70
q19 0 28.5 -11.5t24.5 -44.5q20 -45 209.5 -490t249.5 -583q25 -56 48 -94t43 -56.5t33.5 -25.5t28.5 -10q40 -6 68 -6q25 0 25 -19q0 -11 -14.5 -14.5t-63.5 -3.5q-194 0 -346 4q-3 0 -9 1q-42 5 -45 13q0 16 23 19q10 2 16 13.5t0 25.5l-139 350q-5 12 -18 12zM410 528
h348q12 0 8 11l-170 442q-5 16 -8 16q-5 0 -10 -16l-175 -440q-3 -6 -0.5 -9.5t7.5 -3.5zM883 1526h-492q-10 0 -14 3t-2 11l16 74q5 18 23 18h491q23 0 17 -20l-17 -74q-3 -12 -22 -12z" />
    <glyph glyph-name="Abreve" unicode="&#x102;" horiz-adv-x="1433" 
d="M874 528h-456q-14 0 -19 -16l-110 -293q-31 -79 -31 -125q0 -63 82 -63h31q18 0 24 -4t6 -13q0 -20 -34 -20q-33 0 -109.5 3t-107.5 3q-1 0 -90 -3t-152 -3q-39 0 -39 20q0 17 25 17q31 0 63 4q65 8 102 52t72 132l514 1286q20 48 31.5 65t25.5 17q13 0 25 -15t27 -50
q20 -46 227.5 -567t280.5 -693q28 -65 54.5 -110t49.5 -67.5t40 -31.5t36 -14q41 -8 86 -8q26 0 26 -17q0 -12 -18.5 -16t-75.5 -4q-223 0 -387 4q-53 3 -59 10q-2 2 -2 6q0 16 28 19q12 3 19 16.5t0 30.5l-164 434q-6 14 -21 14zM459 631h377q14 0 10 12l-184 506
q-4 18 -11 18t-12 -18l-188 -504q-3 -14 8 -14zM403 1886q0 10 17 21l67 53q16 14 27 14q5 0 11.5 -7t16 -20t15.5 -20q34 -39 70 -60t60.5 -25.5t57.5 -4.5q100 0 181 57q26 20 47 40.5t29 28t14 7.5q16 0 16 -18q0 -22 -46 -74.5t-83 -77.5q-56 -37 -102.5 -53t-118.5 -16
q-47 0 -104 19t-99 54q-76 61 -76 82z" />
    <glyph glyph-name="abreve" unicode="&#x103;" 
d="M797 432h-424q-12 0 -17 -12l-96 -234q-27 -64 -27 -106q0 -25 16 -37t56 -12h27q26 0 26 -19q0 -18 -28 -18q-30 0 -101.5 3t-99.5 3q-5 0 -38.5 -1.5t-81.5 -3t-89 -1.5q-33 0 -33 18q0 19 21 19q8 0 26.5 1t26.5 1q57 8 88 43.5t62 109.5l471 1096q29 70 53 70
q19 0 28.5 -11.5t24.5 -44.5q20 -45 209.5 -490t249.5 -583q25 -56 48 -94t43 -56.5t33.5 -25.5t28.5 -10q40 -6 68 -6q25 0 25 -19q0 -11 -14.5 -14.5t-63.5 -3.5q-194 0 -346 4q-3 0 -9 1q-42 5 -45 13q0 16 23 19q10 2 16 13.5t0 25.5l-139 350q-5 12 -18 12zM410 528
h348q12 0 8 11l-170 442q-5 16 -8 16q-5 0 -10 -16l-175 -440q-3 -6 -0.5 -9.5t7.5 -3.5zM334 1626q0 10 16 21l68 53q16 14 26 14q5 0 11.5 -7t16 -20t15.5 -20q48 -56 92.5 -73t96.5 -17q99 0 180 57q26 20 47 40.5t29 28t14 7.5q17 0 17 -18q0 -22 -46 -74.5t-83 -77.5
q-57 -37 -104 -53.5t-118 -16.5q-46 0 -103 19.5t-99 54.5q-76 61 -76 82z" />
    <glyph glyph-name="Aogonek" unicode="&#x104;" horiz-adv-x="1433" 
d="M459 631h377q14 0 10 12l-184 506q-4 18 -11 18t-12 -18l-188 -504q-3 -14 8 -14zM1135 -348q34 0 63 17t47 33.5t25 16.5q18 0 18 -16q0 -13 -16 -33q-117 -135 -254 -135q-95 0 -141 37t-46 119q0 43 26.5 94t64 92t71.5 71t56 42q24 13 24 45q0 6 -2 13t-6 16.5
t-6 15.5l-164 434q-6 14 -21 14h-456q-14 0 -19 -16l-110 -293q-31 -79 -31 -125q0 -63 82 -63h31q18 0 24 -4t6 -13q0 -20 -34 -20q-33 0 -109.5 3t-107.5 3q-1 0 -90 -3t-152 -3q-39 0 -39 20q0 17 25 17q31 0 63 4q65 8 102 52t72 132l514 1286q20 48 31.5 65t25.5 17
q13 0 25 -15t27 -50q20 -46 227.5 -567t280.5 -693q28 -65 54.5 -110t49.5 -67.5t40 -31.5t36 -14q41 -8 86 -8q26 0 26 -17q0 -12 -18.5 -16t-75.5 -4q-8 0 -87.5 4.5t-138.5 1.5t-89 -18q-63 -30 -96 -96t-33 -134q0 -100 119 -100z" />
    <glyph glyph-name="aogonek" unicode="&#x105;" 
d="M410 528h348q12 0 8 11l-170 442q-5 16 -8 16q-5 0 -10 -16l-175 -440q-3 -6 -0.5 -9.5t7.5 -3.5zM999 -348q34 0 63.5 17t47.5 33.5t25 16.5q18 0 18 -16q0 -13 -16 -33q-117 -135 -254 -135q-95 0 -141 37t-46 119q0 46 27.5 97t67 91t78.5 73.5t66.5 55.5t27.5 27
q0 13 -9 35l-139 350q-5 12 -18 12h-424q-12 0 -17 -12l-96 -234q-27 -64 -27 -106q0 -25 16 -37t56 -12h27q26 0 26 -19q0 -18 -28 -18q-30 0 -101.5 3t-99.5 3q-5 0 -38.5 -1.5t-81.5 -3t-89 -1.5q-33 0 -33 18q0 19 21 19q8 0 26.5 1t26.5 1q57 8 88 43.5t62 109.5
l471 1096q29 70 53 70q19 0 28.5 -11.5t24.5 -44.5q20 -45 209.5 -490t249.5 -583q25 -56 48 -94t43 -56.5t33.5 -25.5t28.5 -10q40 -6 68 -6q25 0 25 -19q0 -11 -14.5 -14.5t-63.5 -3.5q-10 0 -96 4q-23 0 -67 1t-60 1q-23 0 -50 -9t-56 -28.5t-52 -47.5t-38 -70.5
t-15 -92.5q0 -100 118 -100z" />
    <glyph glyph-name="Cacute" unicode="&#x106;" horiz-adv-x="1638" 
d="M1069 -35q-446 0 -702 223q-254 222 -254 605q0 59 10.5 122.5t34.5 140.5t74 155.5t120 142.5q116 106 271.5 161.5t375.5 55.5q133 0 297 -21q38 -5 106 -18t99 -16t31 -25q0 -6 -1.5 -19t-4 -38t-4.5 -56q-2 -33 -3 -116.5t-3 -104.5q-3 -47 -25 -47q-21 0 -21 45
q-2 49 -22 99.5t-57 88.5q-52 56 -165.5 91.5t-250.5 35.5q-246 0 -385 -127q-189 -173 -189 -530q0 -140 41 -262t107.5 -206t151.5 -144t173.5 -88.5t172.5 -28.5q145 0 230 24t144 91q25 28 44.5 66.5t25.5 68.5q5 25 10 33t17 8q18 0 18 -31q0 -23 -15.5 -123.5
t-29.5 -148.5q-8 -27 -17.5 -38.5t-35.5 -21.5q-117 -47 -369 -47zM1210 1991q23 -42 60 -123q15 -31 -10 -31q-2 0 -12.5 1t-25 1t-32.5 -2q-77 -10 -180 -47.5t-170 -73.5q-32 -16 -35 -16q-4 0 -8 3.5t-4 8.5q0 9 18 27q55 52 176.5 145t153.5 113q26 18 41 18
q10 0 15 -4.5t13 -19.5z" />
    <glyph glyph-name="cacute" unicode="&#x107;" horiz-adv-x="1443" 
d="M942 -29q-392 0 -618 189q-226 190 -226 514q0 50 9.5 104.5t31 119.5t65.5 131.5t105 121.5q103 90 241 137t331 47q114 0 262 -18q28 -4 89.5 -15t90.5 -14q27 -3 27 -20q0 -5 -1.5 -16t-3.5 -33t-4 -48q-2 -32 -3.5 -104t-2.5 -84q-3 -43 -24 -43q-19 0 -19 37
q-4 97 -69 162q-48 46 -138.5 74t-210.5 28q-119 0 -198.5 -23t-140.5 -75q-166 -144 -166 -453q0 -119 35 -221.5t92.5 -172.5t131.5 -120t151 -73t151 -23q130 0 199 17.5t120 74.5q51 58 62 117q3 21 7.5 28t14.5 7q9 0 15 -10t6 -21q0 -20 -13.5 -106.5t-25.5 -125.5
q-6 -23 -15 -32.5t-32 -18.5q-97 -39 -326 -39zM1104 1761q18 -32 59 -123q14 -30 -10 -30q-2 0 -12.5 1t-25 1t-32.5 -2q-77 -10 -180 -47.5t-170 -73.5q-34 -17 -35 -17q-4 0 -8 4t-4 9q0 7 19 26q55 52 176 145.5t153 112.5q27 19 41 19q10 0 15.5 -5t13.5 -20z" />
    <glyph glyph-name="Ccaron" unicode="&#x10c;" horiz-adv-x="1638" 
d="M1069 -35q-446 0 -702 223q-254 222 -254 605q0 59 10.5 122.5t34.5 140.5t74 155.5t120 142.5q116 106 271.5 161.5t375.5 55.5q133 0 297 -21q38 -5 106 -18t99 -16t31 -25q0 -6 -1.5 -19t-4 -38t-4.5 -56q-2 -33 -3 -116.5t-3 -104.5q-3 -47 -25 -47q-21 0 -21 45
q-2 49 -22 99.5t-57 88.5q-52 56 -165.5 91.5t-250.5 35.5q-246 0 -385 -127q-189 -173 -189 -530q0 -140 41 -262t107.5 -206t151.5 -144t173.5 -88.5t172.5 -28.5q145 0 230 24t144 91q25 28 44.5 66.5t25.5 68.5q5 25 10 33t17 8q18 0 18 -31q0 -23 -15.5 -123.5
t-29.5 -148.5q-8 -27 -17.5 -38.5t-35.5 -21.5q-117 -47 -369 -47zM631 1935l59 60q14 14 23 14q13 0 35 -22q26 -26 93.5 -82.5t86.5 -69.5q15 -12 26 -12q18 0 31 8q117 72 213 151q34 27 45 27q8 0 13.5 -5.5t5.5 -14.5q0 -12 -19 -31q-16 -18 -131 -126t-139 -128
q-28 -25 -43 -25q-4 0 -37 23q-22 20 -244 184q-28 19 -28 29t10 20z" />
    <glyph glyph-name="ccaron" unicode="&#x10d;" horiz-adv-x="1443" 
d="M942 -29q-392 0 -618 189q-226 190 -226 514q0 50 9.5 104.5t31 119.5t65.5 131.5t105 121.5q103 90 241 137t331 47q114 0 262 -18q28 -4 89.5 -15t90.5 -14q27 -3 27 -20q0 -5 -1.5 -16t-3.5 -33t-4 -48q-2 -32 -3.5 -104t-2.5 -84q-3 -43 -24 -43q-19 0 -19 37
q-4 97 -69 162q-48 46 -138.5 74t-210.5 28q-119 0 -198.5 -23t-140.5 -75q-166 -144 -166 -453q0 -119 35 -221.5t92.5 -172.5t131.5 -120t151 -73t151 -23q130 0 199 17.5t120 74.5q51 58 62 117q3 21 7.5 28t14.5 7q9 0 15 -10t6 -21q0 -20 -13.5 -106.5t-25.5 -125.5
q-6 -23 -15 -32.5t-32 -18.5q-97 -39 -326 -39zM535 1706l59 59q15 15 22 15q12 0 35 -23q26 -26 93.5 -82t86.5 -69q16 -13 27 -13q16 0 31 9q117 72 213 151q34 27 45 27q8 0 13 -6t5 -15q0 -12 -18 -30q-16 -18 -131 -126t-139 -128q-28 -25 -43 -25q-4 0 -37 23
q-22 20 -244 184q-29 20 -29 29t11 20z" />
    <glyph glyph-name="Dcaron" unicode="&#x10e;" horiz-adv-x="1916" 
d="M336 588v360q0 368 -4 434q-3 55 -21 81t-67 36q-24 6 -80 6q-35 0 -35 19q0 18 45 18q61 0 167 -3t128 -3q24 0 135 3t180 3q75 0 116 -0.5t118.5 -5t128 -13t121.5 -25.5t124 -41t110.5 -62t103.5 -86q198 -206 198 -521q0 -180 -63 -326.5t-160 -244.5
q-41 -42 -96 -79.5t-138 -76.5t-200.5 -62.5t-251.5 -23.5q-67 0 -236 13q-156 12 -200 12q-68 0 -117 -2q-24 0 -72.5 -2t-68.5 -2q-41 0 -41 20q0 17 33 17q37 0 73 8q28 5 40.5 33t19.5 80q10 86 10 436zM592 981v-258q0 -336 4 -414q5 -131 22 -155q24 -34 91 -58
t178 -24q158 0 269 34t202 113q172 148 172 510q0 176 -58 305.5t-139 206.5q-214 205 -581 205q-34 0 -78.5 -4t-55.5 -10q-24 -11 -24 -41q-2 -70 -2 -410zM606 1935l60 60q14 14 22 14q13 0 35 -22q26 -26 93.5 -82.5t86.5 -69.5q15 -12 27 -12q18 0 31 8q117 72 213 151
q34 27 45 27q18 0 18 -20q0 -13 -18 -31q-16 -18 -131.5 -125.5t-139.5 -128.5q-28 -25 -43 -25q-4 0 -37 23q-28 24 -243 184q-29 20 -29 29q0 10 10 20z" />
    <glyph glyph-name="dcaron" unicode="&#x10f;" horiz-adv-x="1701" 
d="M295 500v307q0 314 -2 369q-3 44 -19 63t-59 31q-21 6 -72 6q-30 0 -30 18q0 17 41 17q52 0 146 -2t114 -2q21 0 126.5 2t166.5 2q66 0 102 -0.5t104.5 -4t113 -11t107 -22t109 -35t97.5 -53t92 -73.5q170 -170 170 -442q0 -153 -55.5 -277.5t-141.5 -208.5
q-35 -35 -84 -67t-122.5 -65t-176.5 -52.5t-221 -19.5q-35 0 -215 10q-120 10 -183 10q-7 0 -42.5 -1t-59.5 -1q-86 -4 -125 -4q-35 0 -35 18q0 19 29 19q39 0 63 6q26 6 37.5 28t16.5 64q8 74 8 371zM537 834v-220q0 -282 4 -352q5 -103 20 -123q20 -29 79.5 -49t156.5 -20
q128 0 221 26.5t172 91.5q153 126 153 433q0 152 -48.5 262.5t-118.5 171.5q-187 166 -504 166q-88 0 -111 -13q-22 -8 -22 -34q-2 -59 -2 -340zM500 1706l59 59q15 15 23 15q11 0 34 -23q26 -26 93.5 -81.5t87.5 -69.5q16 -13 26 -13q16 0 31 9q117 72 213 151q34 27 45 27
q8 0 13 -6t5 -15q0 -12 -18 -30q-16 -18 -131 -126t-139 -128q-28 -25 -43 -25q-4 0 -37 23q-22 20 -244 184q-29 20 -29 29t11 20z" />
    <glyph glyph-name="Dcroat" unicode="&#x110;" horiz-adv-x="1916" 
d="M336 723h-207q-14 0 -10 25l10 61q3 20 27 20h180v119q0 368 -4 434q-3 55 -21 81t-67 36q-24 6 -80 6q-35 0 -35 19q0 18 45 18q61 0 167 -3t128 -3q24 0 135 3t180 3q75 0 116 -0.5t118.5 -5t128 -13t121.5 -25.5t124 -41t110.5 -62t103.5 -86q198 -206 198 -521
q0 -180 -62.5 -328t-158.5 -247q-86 -88 -264.5 -163t-390.5 -75q-63 0 -262 13q-180 12 -207 12q-68 0 -117 -2q-24 0 -72.5 -2t-68.5 -2q-41 0 -41 20q0 17 33 17q37 0 73 8q28 5 40.5 33t19.5 80q10 86 10 436v135zM592 831h409q18 0 15 -24l-12 -68q-3 -18 -25 -18h-387
v-94q0 -238 4 -316q5 -131 22 -155q24 -34 91 -59t178 -25q158 0 274 36t205 117q164 146 164 504q0 176 -58 305.5t-139 206.5q-214 205 -581 205q-34 0 -78.5 -4t-55.5 -10q-24 -11 -24 -41q-2 -70 -2 -410v-150z" />
    <glyph glyph-name="dcroat" unicode="&#x111;" horiz-adv-x="1705" 
d="M295 610h-182q-13 0 -9 21l9 61q3 17 24 17h158v98q0 314 -2 369q-3 44 -19 63t-59 31q-21 6 -72 6q-30 0 -30 18q0 17 41 17q52 0 146 -2t114 -2q21 0 126.5 2t166.5 2q66 0 102 -0.5t104.5 -4t113 -11t107 -22t109 -35t97.5 -53t92 -73.5q174 -174 174 -442
q0 -153 -55 -279t-140 -211q-76 -74 -233.5 -137t-343.5 -63q-97 0 -240 10q-33 2 -77 4.5t-72.5 4t-41.5 1.5q-7 0 -42.5 -1t-59.5 -1q-86 -4 -125 -4q-35 0 -35 18q0 19 29 19q39 0 63 6q26 6 37.5 28t16.5 64q8 74 8 371v110zM537 711h360q15 0 12 -21l-10 -65
q-3 -17 -20 -17h-342v-80q0 -190 4 -256q5 -109 20 -131q51 -71 234 -71q141 0 236.5 27.5t172.5 95.5q144 124 144 428q0 150 -50.5 259t-121.5 175q-59 55 -125.5 90.5t-134.5 50.5t-118 20t-112 5q-90 0 -125 -13q-22 -8 -22 -34q-2 -59 -2 -340v-123z" />
    <glyph glyph-name="Emacron" unicode="&#x112;" 
d="M336 588v360q0 368 -4 434q-3 55 -21 81t-67 36q-24 6 -80 6q-35 0 -35 19q0 18 45 18q28 0 84.5 -1t81.5 -1q106 -4 129 -4q473 0 512 2q68 7 88 12l15 5t18 4q12 0 12 -19q0 -5 -2.5 -18t-6.5 -43.5t-7 -71.5q0 -3 -4.5 -61.5t-6.5 -73.5q-5 -23 -20 -23q-18 0 -18 29
q0 42 -13 74q-12 31 -39 48t-98 25q-24 3 -138 6t-153 3q-14 0 -14 -21v-518q0 -23 14 -23q269 0 328 5q77 6 98 30q24 27 33 27q14 0 14 -16q0 -4 -2 -19t-6.5 -50.5t-7.5 -80.5q-1 -17 -3 -49t-3.5 -57t-1.5 -31q0 -39 -19 -39q-18 0 -18 18q-7 69 -8 74q-17 70 -115 80
q-59 6 -291 6q-12 0 -12 -20v-162v-318q2 -75 20.5 -109t68.5 -48.5t157 -14.5q139 0 192 25q40 19 60.5 53.5t31.5 97.5q5 31 23 31q8 0 11.5 -6t4 -12t0.5 -19q0 -35 -9 -115.5t-17 -111.5q-10 -38 -29 -45.5t-82 -7.5q-90 0 -354 6q-132 6 -213 6q-68 0 -117 -2
q-24 0 -72.5 -2t-68.5 -2q-41 0 -41 20q0 17 33 17q37 0 73 8q28 5 40.5 33t19.5 80q10 86 10 436zM922 1755h-492q-10 0 -14 3t-2 11l16 74q5 19 23 19h491q23 0 17 -21l-17 -74q-3 -12 -22 -12z" />
    <glyph glyph-name="emacron" unicode="&#x113;" horiz-adv-x="1179" 
d="M295 500v307q0 314 -2 369q-3 44 -19 63t-59 31q-21 6 -72 6q-30 0 -30 18q0 17 41 17q52 0 146 -2t114 -2q7 0 135.5 -0.5t234 -0.5t121.5 1q10 1 76 10q4 1 14.5 4.5t14.5 3.5q12 0 12 -16q0 -4 -2.5 -15.5t-6 -37t-5.5 -60.5q0 -1 -4.5 -52t-6.5 -63q-7 -28 -20 -28
q-14 0 -14 22q0 38 -13 64q-9 19 -17.5 29t-33.5 20t-68 14q-62 8 -282 8q-12 0 -12 -16v-430q0 -19 12 -19q264 0 315 5q69 6 86 26q5 4 11.5 11t10 9.5t7.5 2.5q14 0 14 -19q0 -4 -14 -127q-8 -70 -8 -116q0 -39 -19 -39q-16 0 -16 14q0 4 -2 27t-4 36q-17 61 -101 68
q-66 8 -282 8q-10 0 -10 -18v-139q0 -17 -0.5 -77t-0.5 -109t1 -72q3 -88 53 -117t190 -29q116 0 170 23q33 15 51 44.5t27 84.5q6 26 21 26q16 0 16 -41q0 -30 -9 -98t-16 -94q-9 -32 -25 -38.5t-71 -6.5q-200 0 -332 6q-176 4 -209 4q-7 0 -42.5 -1t-59.5 -1
q-86 -4 -125 -4q-35 0 -35 18q0 19 29 19q39 0 63 6q26 6 37.5 28t16.5 64q8 74 8 371zM864 1526h-491q-11 0 -14.5 3.5t-2.5 10.5l17 74q5 18 22 18h492q22 0 16 -20l-16 -74q-3 -12 -23 -12z" />
    <glyph glyph-name="Edotaccent" unicode="&#x116;" 
d="M336 588v360q0 368 -4 434q-3 55 -21 81t-67 36q-24 6 -80 6q-35 0 -35 19q0 18 45 18q28 0 84.5 -1t81.5 -1q106 -4 129 -4q473 0 512 2q68 7 88 12l15 5t18 4q12 0 12 -19q0 -5 -2.5 -18t-6.5 -43.5t-7 -71.5q0 -3 -4.5 -61.5t-6.5 -73.5q-5 -23 -20 -23q-18 0 -18 29
q0 42 -13 74q-12 31 -39 48t-98 25q-24 3 -138 6t-153 3q-14 0 -14 -21v-518q0 -23 14 -23q269 0 328 5q77 6 98 30q24 27 33 27q14 0 14 -16q0 -4 -2 -19t-6.5 -50.5t-7.5 -80.5q-1 -17 -3 -49t-3.5 -57t-1.5 -31q0 -39 -19 -39q-18 0 -18 18q-7 69 -8 74q-17 70 -115 80
q-59 6 -291 6q-12 0 -12 -20v-162v-318q2 -75 20.5 -109t68.5 -48.5t157 -14.5q139 0 192 25q40 19 60.5 53.5t31.5 97.5q5 31 23 31q8 0 11.5 -6t4 -12t0.5 -19q0 -35 -9 -115.5t-17 -111.5q-10 -38 -29 -45.5t-82 -7.5q-90 0 -354 6q-132 6 -213 6q-68 0 -117 -2
q-24 0 -72.5 -2t-68.5 -2q-41 0 -41 20q0 17 33 17q37 0 73 8q28 5 40.5 33t19.5 80q10 86 10 436zM696 1700q-56 0 -85 35.5t-29 79.5q0 45 29 81.5t85 36.5q51 0 84 -30t33 -80q0 -52 -32.5 -87.5t-84.5 -35.5z" />
    <glyph glyph-name="edotaccent" unicode="&#x117;" horiz-adv-x="1179" 
d="M295 500v307q0 314 -2 369q-3 44 -19 63t-59 31q-21 6 -72 6q-30 0 -30 18q0 17 41 17q52 0 146 -2t114 -2q7 0 135.5 -0.5t234 -0.5t121.5 1q10 1 76 10q4 1 14.5 4.5t14.5 3.5q12 0 12 -16q0 -4 -2.5 -15.5t-6 -37t-5.5 -60.5q0 -1 -4.5 -52t-6.5 -63q-7 -28 -20 -28
q-14 0 -14 22q0 38 -13 64q-9 19 -17.5 29t-33.5 20t-68 14q-62 8 -282 8q-12 0 -12 -16v-430q0 -19 12 -19q264 0 315 5q69 6 86 26q5 4 11.5 11t10 9.5t7.5 2.5q14 0 14 -19q0 -4 -14 -127q-8 -70 -8 -116q0 -39 -19 -39q-16 0 -16 14q0 4 -2 27t-4 36q-17 61 -101 68
q-66 8 -282 8q-10 0 -10 -18v-139q0 -17 -0.5 -77t-0.5 -109t1 -72q3 -88 53 -117t190 -29q116 0 170 23q33 15 51 44.5t27 84.5q6 26 21 26q16 0 16 -41q0 -30 -9 -98t-16 -94q-9 -32 -25 -38.5t-71 -6.5q-200 0 -332 6q-176 4 -209 4q-7 0 -42.5 -1t-59.5 -1
q-86 -4 -125 -4q-35 0 -35 18q0 19 29 19q39 0 63 6q26 6 37.5 28t16.5 64q8 74 8 371zM649 1470q-56 0 -85 35.5t-29 79.5q0 45 29 82t85 37q51 0 84 -30.5t33 -80.5q0 -52 -32.5 -87.5t-84.5 -35.5z" />
    <glyph glyph-name="Eogonek" unicode="&#x118;" 
d="M983 -348q34 0 63 17t47 33.5t25 16.5q19 0 19 -16q0 -12 -17 -33q-117 -135 -254 -135q-95 0 -140.5 37t-45.5 119q0 72 74 162.5t139 134.5q-118 3 -221 6q-34 1 -106.5 3.5t-106.5 2.5q-68 0 -117 -2q-24 0 -72.5 -2t-68.5 -2q-41 0 -41 20q0 17 33 17q37 0 73 8
q28 5 40.5 33t19.5 80q10 86 10 436v360q0 368 -4 434q-3 55 -21 81t-67 36q-24 6 -80 6q-35 0 -35 19q0 18 45 18q28 0 84.5 -1t81.5 -1q106 -4 129 -4q473 0 512 2q68 7 88 12l15 5t18 4q12 0 12 -19q0 -5 -2.5 -18t-6.5 -43.5t-7 -71.5q0 -3 -4.5 -61.5t-6.5 -73.5
q-5 -23 -20 -23q-18 0 -18 29q0 42 -13 74q-12 31 -39 48t-98 25q-24 3 -138 6t-153 3q-14 0 -14 -21v-518q0 -23 14 -23q269 0 328 5q77 6 98 30q24 27 33 27q14 0 14 -16q0 -4 -2 -19t-6.5 -50.5t-7.5 -80.5q-1 -17 -3 -49t-3.5 -57t-1.5 -31q0 -39 -19 -39q-18 0 -18 18
q-7 69 -8 74q-17 70 -115 80q-59 6 -291 6q-12 0 -12 -20v-162v-318q2 -75 20.5 -109t68.5 -48.5t157 -14.5q139 0 192 25q40 19 60.5 53.5t31.5 97.5q5 31 23 31q8 0 11.5 -6t4 -12t0.5 -19q0 -35 -9 -115.5t-17 -111.5q-5 -19 -19.5 -29t-28.5 -12.5t-40.5 -5.5t-40.5 -6
q-59 -13 -101.5 -87.5t-42.5 -148.5q0 -100 119 -100z" />
    <glyph glyph-name="eogonek" unicode="&#x119;" horiz-adv-x="1179" 
d="M887 -348q34 0 63 17t47 33.5t25 16.5q18 0 18 -16q0 -13 -16 -33q-117 -135 -254 -135q-95 0 -140.5 37t-45.5 119q0 73 77.5 166.5t139.5 134.5q-33 1 -96.5 2t-92.5 2q-176 4 -209 4q-7 0 -42.5 -1t-59.5 -1q-22 0 -64.5 -2t-60.5 -2q-35 0 -35 18q0 19 29 19
q39 0 63 6q26 6 37.5 28t16.5 64q8 74 8 371v307q0 314 -2 369q-3 44 -19 63t-59 31q-21 6 -72 6q-30 0 -30 18q0 17 41 17q52 0 146 -2t114 -2q7 0 135.5 -0.5t234 -0.5t121.5 1q10 1 76 10q4 1 14.5 4.5t14.5 3.5q12 0 12 -16q0 -4 -2.5 -15.5t-6 -37t-5.5 -60.5
q0 -1 -4.5 -52t-6.5 -63q-7 -28 -20 -28q-14 0 -14 22q0 38 -13 64q-9 19 -17.5 29t-33.5 20t-68 14q-62 8 -282 8q-12 0 -12 -16v-430q0 -19 12 -19q264 0 315 5q69 6 86 26q5 4 11.5 11t10 9.5t7.5 2.5q14 0 14 -19q0 -4 -14 -127q-8 -70 -8 -116q0 -39 -19 -39
q-16 0 -16 14q0 4 -2 27t-4 36q-17 61 -101 68q-66 8 -282 8q-10 0 -10 -18v-139q0 -17 -0.5 -77t-0.5 -109t1 -72q3 -88 53 -117t190 -29q116 0 170 23q33 15 51 44.5t27 84.5q6 26 21 26q16 0 16 -41q0 -30 -9 -98t-16 -94q-4 -16 -15.5 -24.5t-22.5 -10.5t-37 -4.5
t-43 -5.5q-67 -12 -110.5 -83.5t-43.5 -154.5q0 -100 119 -100z" />
    <glyph glyph-name="Ecaron" unicode="&#x11a;" 
d="M336 588v360q0 368 -4 434q-3 55 -21 81t-67 36q-24 6 -80 6q-35 0 -35 19q0 18 45 18q28 0 84.5 -1t81.5 -1q106 -4 129 -4q473 0 512 2q68 7 88 12l15 5t18 4q12 0 12 -19q0 -5 -2.5 -18t-6.5 -43.5t-7 -71.5q0 -3 -4.5 -61.5t-6.5 -73.5q-5 -23 -20 -23q-18 0 -18 29
q0 42 -13 74q-12 31 -39 48t-98 25q-24 3 -138 6t-153 3q-14 0 -14 -21v-518q0 -23 14 -23q269 0 328 5q77 6 98 30q24 27 33 27q14 0 14 -16q0 -4 -2 -19t-6.5 -50.5t-7.5 -80.5q-1 -17 -3 -49t-3.5 -57t-1.5 -31q0 -39 -19 -39q-18 0 -18 18q-7 69 -8 74q-17 70 -115 80
q-59 6 -291 6q-12 0 -12 -20v-162v-318q2 -75 20.5 -109t68.5 -48.5t157 -14.5q139 0 192 25q40 19 60.5 53.5t31.5 97.5q5 31 23 31q8 0 11.5 -6t4 -12t0.5 -19q0 -35 -9 -115.5t-17 -111.5q-10 -38 -29 -45.5t-82 -7.5q-90 0 -354 6q-132 6 -213 6q-68 0 -117 -2
q-24 0 -72.5 -2t-68.5 -2q-41 0 -41 20q0 17 33 17q37 0 73 8q28 5 40.5 33t19.5 80q10 86 10 436zM397 1935l60 60q14 14 22 14q13 0 35 -22q26 -26 93.5 -82.5t86.5 -69.5q15 -12 27 -12q18 0 31 8q117 72 213 151q34 27 45 27q18 0 18 -20q0 -13 -18 -31
q-16 -18 -131.5 -125.5t-139.5 -128.5q-28 -25 -43 -25q-4 0 -37 23q-28 24 -243 184q-29 20 -29 29q0 10 10 20z" />
    <glyph glyph-name="ecaron" unicode="&#x11b;" horiz-adv-x="1179" 
d="M295 500v307q0 314 -2 369q-3 44 -19 63t-59 31q-21 6 -72 6q-30 0 -30 18q0 17 41 17q52 0 146 -2t114 -2q7 0 135.5 -0.5t234 -0.5t121.5 1q10 1 76 10q4 1 14.5 4.5t14.5 3.5q12 0 12 -16q0 -4 -2.5 -15.5t-6 -37t-5.5 -60.5q0 -1 -4.5 -52t-6.5 -63q-7 -28 -20 -28
q-14 0 -14 22q0 38 -13 64q-9 19 -17.5 29t-33.5 20t-68 14q-62 8 -282 8q-12 0 -12 -16v-430q0 -19 12 -19q264 0 315 5q69 6 86 26q5 4 11.5 11t10 9.5t7.5 2.5q14 0 14 -19q0 -4 -14 -127q-8 -70 -8 -116q0 -39 -19 -39q-16 0 -16 14q0 4 -2 27t-4 36q-17 61 -101 68
q-66 8 -282 8q-10 0 -10 -18v-139q0 -17 -0.5 -77t-0.5 -109t1 -72q3 -88 53 -117t190 -29q116 0 170 23q33 15 51 44.5t27 84.5q6 26 21 26q16 0 16 -41q0 -30 -9 -98t-16 -94q-9 -32 -25 -38.5t-71 -6.5q-200 0 -332 6q-176 4 -209 4q-7 0 -42.5 -1t-59.5 -1
q-86 -4 -125 -4q-35 0 -35 18q0 19 29 19q39 0 63 6q26 6 37.5 28t16.5 64q8 74 8 371zM340 1706l59 59q15 15 23 15q12 0 35 -23q26 -26 93.5 -82t86.5 -69q16 -13 27 -13q15 0 30 9q117 72 213 151q34 27 45 27q8 0 13.5 -6t5.5 -15q0 -11 -19 -30q-16 -18 -131 -126
t-139 -128q-28 -25 -43 -25q-4 0 -37 23q-22 20 -244 184q-28 19 -28 29t10 20z" />
    <glyph glyph-name="Gbreve" unicode="&#x11e;" horiz-adv-x="1814" 
d="M1579 356v-225q0 -41 -4 -52t-23 -22q-175 -92 -493 -92q-154 0 -291.5 29t-258 91.5t-208 155t-138 227.5t-50.5 300q0 231 101.5 404t254.5 266q134 81 264 107t287 26q92 0 203.5 -12t158.5 -21q105 -20 162 -22q17 -1 23 -7t6 -18q0 -3 -3.5 -35.5t-7 -110
t-3.5 -190.5q0 -43 -23 -43q-17 0 -20 27q-14 110 -70 170q-55 60 -177.5 109.5t-279.5 49.5q-53 0 -93 -3.5t-96 -15t-110.5 -39t-105.5 -69.5q-189 -158 -189 -501q0 -164 51 -306t143 -244.5t226 -161t293 -58.5q127 0 174 22q39 18 39 76v192q0 181 -2 242
q-2 54 -20.5 80.5t-67.5 36.5q-24 6 -80 6q-31 0 -31 16q0 21 43 21q59 0 165.5 -3t131.5 -3q31 0 118 3t122 3q41 0 41 -21q0 -16 -27 -16q-18 0 -55 -6q-41 -7 -58.5 -34.5t-19.5 -82.5q-2 -61 -2 -246zM676 1855q0 10 16 21l68 53q18 15 26 15q5 0 11.5 -7t16 -20.5
t15.5 -20.5q48 -56 92.5 -73t96.5 -17q97 0 180 58q26 20 47 40t29 27.5t14 7.5q17 0 17 -18q0 -22 -46 -74.5t-83 -77.5q-56 -37 -103 -53t-119 -16q-46 0 -103 19.5t-99 54.5q-76 61 -76 81z" />
    <glyph glyph-name="gbreve" unicode="&#x11f;" horiz-adv-x="1603" 
d="M1395 303v-192q0 -36 -3 -44.5t-20 -17.5q-160 -78 -440 -78q-136 0 -257 24.5t-227.5 77.5t-183.5 131.5t-121.5 193.5t-44.5 255q0 196 89.5 343.5t226.5 226.5q117 68 231.5 90t253.5 22q83 0 183 -10t137 -18q107 -17 143 -19q24 -2 24 -20q0 -3 -3 -30.5t-6 -93.5
t-3 -163q0 -39 -24 -39q-16 0 -19 23q-9 89 -61 143q-49 51 -151.5 92t-239.5 41q-49 0 -81 -2t-81 -11t-96 -31.5t-91 -57.5q-165 -135 -165 -424q0 -187 75.5 -333.5t218.5 -230t332 -83.5q84 0 127 18q35 16 35 61v160q0 152 -2 205q-1 43 -17.5 62.5t-60.5 31.5
q-21 6 -69 6q-12 0 -20.5 5.5t-8.5 13.5q0 16 39 16q52 0 153.5 -2t122.5 -2q28 0 104.5 2t106.5 2q20 0 28.5 -3t8.5 -13q0 -8 -6.5 -13.5t-15.5 -5.5q-20 0 -50 -6q-37 -6 -52 -27t-17 -67q-2 -53 -2 -209zM549 1626q0 10 16 21l68 53q16 14 26 14q5 0 11.5 -7t16 -20
t15.5 -20q48 -56 92.5 -73t96.5 -17q99 0 180 57q26 20 47 40.5t29 28t14 7.5q17 0 17 -18q0 -22 -46 -74.5t-83 -77.5q-57 -37 -104 -53.5t-118 -16.5q-46 0 -103 19.5t-99 54.5q-76 61 -76 82z" />
    <glyph glyph-name="Gcommaaccent" unicode="&#x122;" horiz-adv-x="1814" 
d="M1579 356v-225q0 -41 -4 -52t-23 -22q-175 -92 -493 -92q-154 0 -291.5 29t-258 91.5t-208 155t-138 227.5t-50.5 300q0 231 101.5 404t254.5 266q134 81 264 107t287 26q92 0 203.5 -12t158.5 -21q105 -20 162 -22q17 -1 23 -7t6 -18q0 -3 -3.5 -35.5t-7 -110
t-3.5 -190.5q0 -43 -23 -43q-17 0 -20 27q-14 110 -70 170q-55 60 -177.5 109.5t-279.5 49.5q-53 0 -93 -3.5t-96 -15t-110.5 -39t-105.5 -69.5q-189 -158 -189 -501q0 -164 51 -306t143 -244.5t226 -161t293 -58.5q127 0 174 22q39 18 39 76v192q0 181 -2 242
q-2 54 -20.5 80.5t-67.5 36.5q-24 6 -80 6q-31 0 -31 16q0 21 43 21q59 0 165.5 -3t131.5 -3q31 0 118 3t122 3q41 0 41 -21q0 -16 -27 -16q-18 0 -55 -6q-41 -7 -58.5 -34.5t-19.5 -82.5q-2 -61 -2 -246zM1128 -242q0 -33 -22 -86q-23 -52 -61.5 -120t-77.5 -113
q-25 -21 -31 -21q-4 0 -9 6.5t-5 12.5q0 4 2.5 8.5t6.5 10.5t5 9q51 87 51 154q0 34 -11.5 62t-25.5 42.5t-25.5 27t-11.5 20.5q0 44 44.5 83.5t86.5 39.5q11 0 19 -8.5t27 -37.5q38 -59 38 -90z" />
    <glyph glyph-name="gcommaaccent" unicode="&#x123;" horiz-adv-x="1603" 
d="M1395 303v-192q0 -36 -3 -44.5t-20 -17.5q-160 -78 -440 -78q-136 0 -257 24.5t-227.5 77.5t-183.5 131.5t-121.5 193.5t-44.5 255q0 196 89.5 343.5t226.5 226.5q117 68 231.5 90t253.5 22q83 0 183 -10t137 -18q107 -17 143 -19q24 -2 24 -20q0 -3 -3 -30.5t-6 -93.5
t-3 -163q0 -39 -24 -39q-16 0 -19 23q-9 89 -61 143q-49 51 -151.5 92t-239.5 41q-49 0 -81 -2t-81 -11t-96 -31.5t-91 -57.5q-165 -135 -165 -424q0 -187 75.5 -333.5t218.5 -230t332 -83.5q84 0 127 18q35 16 35 61v160q0 152 -2 205q-1 43 -17.5 62.5t-60.5 31.5
q-21 6 -69 6q-12 0 -20.5 5.5t-8.5 13.5q0 16 39 16q52 0 153.5 -2t122.5 -2q28 0 104.5 2t106.5 2q20 0 28.5 -3t8.5 -13q0 -8 -6.5 -13.5t-15.5 -5.5q-20 0 -50 -6q-37 -6 -52 -27t-17 -67q-2 -53 -2 -209zM1012 -242q0 -30 -23 -86q-23 -52 -61.5 -120t-77.5 -113
q-25 -21 -31 -21q-4 0 -9 6.5t-5 12.5q0 4 2.5 8.5t6.5 10.5t5 9q51 87 51 154q0 34 -11.5 62t-25 42.5t-25 27t-11.5 20.5q0 44 44.5 83.5t86.5 39.5q11 0 18 -8t27 -38q39 -61 39 -90z" />
    <glyph glyph-name="Imacron" unicode="&#x12a;" horiz-adv-x="925" 
d="M336 588v360q0 368 -4 434q-6 101 -70 115q-31 8 -74 8q-32 0 -32 21q0 16 49 16q41 0 140 -3t126 -3q22 0 115 3t135 3q43 0 43 -16q0 -21 -33 -21q-23 0 -61 -6q-40 -7 -56.5 -34t-19.5 -83q-4 -66 -4 -434v-360q0 -361 8 -449q5 -46 22 -70t60 -30q58 -8 104 -8
q33 0 33 -17q0 -20 -39 -20q-78 0 -190 3t-129 3q-19 0 -116 -3t-142 -3q-41 0 -41 20q0 17 33 17q37 0 73 8q29 6 42 30t18 72q10 86 10 447zM698 1755h-491q-11 0 -14.5 3.5t-2.5 10.5l17 74q5 19 22 19h492q22 0 16 -21l-16 -74q-3 -12 -23 -12z" />
    <glyph glyph-name="imacron" unicode="&#x12b;" horiz-adv-x="833" 
d="M295 500v307q0 314 -2 369q-3 43 -17 63t-45 29q-27 8 -65 8q-29 0 -29 20q0 15 43 15q36 0 127.5 -2t114.5 -2q19 0 106 2t125 2q37 0 37 -15q0 -20 -28 -20q-24 0 -54 -6q-36 -6 -50 -26.5t-17 -67.5q-4 -55 -4 -369v-307q0 -307 8 -381q5 -39 19.5 -57.5t51.5 -24.5
q38 -6 93 -6q14 0 21 -6t7 -13q0 -18 -35 -18q-68 0 -171 3t-119 3q-17 0 -106.5 -3t-129.5 -3q-35 0 -35 18q0 19 29 19q39 0 63 6q27 6 38 25t16 59q8 72 8 379zM651 1526h-491q-11 0 -14.5 3.5t-2.5 10.5l17 74q5 18 22 18h492q22 0 16 -20l-16 -74q-3 -12 -23 -12z" />
    <glyph glyph-name="Iogonek" unicode="&#x12e;" horiz-adv-x="925" 
d="M565 -348q34 0 63 17t47 33.5t25 16.5q19 0 19 -16q0 -12 -17 -33q-117 -135 -253 -135q-95 0 -141 37t-46 119q0 56 51.5 129.5t105.5 122.5t77 57h-37q-68 0 -117 -2q-24 0 -72.5 -2t-68.5 -2q-41 0 -41 20q0 17 33 17q37 0 73 8q29 6 42 30t18 72q10 86 10 447v360
q0 368 -4 434q-6 101 -70 115q-31 8 -74 8q-32 0 -32 21q0 16 49 16q41 0 140 -3t126 -3q22 0 115 3t135 3q43 0 43 -16q0 -21 -33 -21q-23 0 -61 -6q-40 -7 -56.5 -34t-19.5 -83q-4 -66 -4 -434v-360q0 -361 8 -449q5 -46 22 -70t60 -30q58 -8 104 -8q33 0 33 -17
q0 -20 -39 -20q-21 0 -69 4t-79 2t-55 -14q-56 -29 -92.5 -99t-36.5 -135q0 -100 119 -100z" />
    <glyph glyph-name="iogonek" unicode="&#x12f;" horiz-adv-x="833" 
d="M514 -348q34 0 63 17t47 33.5t25 16.5q19 0 19 -16q0 -12 -17 -33q-117 -135 -254 -135q-95 0 -140.5 37t-45.5 119q0 43 30.5 98t71.5 99t78 75.5t53 36.5h-32q-7 0 -44 -1t-63 -1q-90 -4 -129 -4q-35 0 -35 18q0 19 29 19q39 0 63 6q27 6 38 25t16 59q8 72 8 379v307
q0 314 -2 369q-3 43 -17 63t-45 29q-27 8 -65 8q-29 0 -29 20q0 15 43 15q36 0 127.5 -2t114.5 -2q19 0 106 2t125 2q37 0 37 -15q0 -20 -28 -20q-24 0 -54 -6q-36 -6 -50 -26.5t-17 -67.5q-4 -55 -4 -369v-307q0 -307 8 -381q5 -39 19.5 -57.5t51.5 -24.5q38 -6 93 -6
q14 0 21 -6t7 -13q0 -18 -35 -18q-16 0 -59.5 3.5t-72 1t-50.5 -14.5q-53 -30 -89 -99.5t-36 -132.5q0 -100 119 -100z" />
    <glyph glyph-name="Idotaccent" unicode="&#x130;" horiz-adv-x="925" 
d="M336 588v360q0 368 -4 434q-6 101 -70 115q-31 8 -74 8q-32 0 -32 21q0 16 49 16q41 0 140 -3t126 -3q22 0 115 3t135 3q43 0 43 -16q0 -21 -33 -21q-23 0 -61 -6q-40 -7 -56.5 -34t-19.5 -83q-4 -66 -4 -434v-360q0 -361 8 -449q5 -46 22 -70t60 -30q58 -8 104 -8
q33 0 33 -17q0 -20 -39 -20q-78 0 -190 3t-129 3q-19 0 -116 -3t-142 -3q-41 0 -41 20q0 17 33 17q37 0 73 8q29 6 42 30t18 72q10 86 10 447zM463 1700q-57 0 -86 35.5t-29 79.5q0 45 29.5 81.5t85.5 36.5q51 0 84 -30t33 -80q0 -52 -32.5 -87.5t-84.5 -35.5z" />
    <glyph glyph-name="dotlessi" unicode="&#x131;" horiz-adv-x="833" 
d="M295 500v307q0 314 -2 369q-3 43 -17 63t-45 29q-27 8 -65 8q-29 0 -29 20q0 15 43 15q36 0 127.5 -2t114.5 -2q19 0 106 2t125 2q37 0 37 -15q0 -20 -28 -20q-24 0 -54 -6q-36 -6 -50 -26.5t-17 -67.5q-4 -55 -4 -369v-307q0 -307 8 -381q5 -39 19.5 -57.5t51.5 -24.5
q38 -6 93 -6q14 0 21 -6t7 -13q0 -18 -35 -18q-68 0 -171 3t-119 3q-17 0 -106.5 -3t-129.5 -3q-35 0 -35 18q0 19 29 19q39 0 63 6q27 6 38 25t16 59q8 72 8 379z" />
    <glyph glyph-name="Kcommaaccent" unicode="&#x136;" horiz-adv-x="1572" 
d="M586 948v-90h10q20 22 207 216t221 235q77 91 91 117q11 21 11 36q0 35 -28 41q-27 6 -27 21q0 18 33 18q20 0 101 -3t110 -3q31 0 119 3t120 3q35 0 35 -18q0 -19 -30 -19q-58 0 -119 -22q-107 -42 -221 -154q-60 -58 -228 -225t-215 -217q53 -68 271.5 -305t283.5 -299
q116 -111 165 -148q66 -50 128 -74q73 -30 127 -30q27 0 27 -17q0 -11 -10.5 -15.5t-38.5 -4.5h-179q-98 0 -141 4q-76 7 -126.5 36t-127.5 97q-61 54 -279 305.5t-258 306.5l-22 31h-10v-186q0 -350 6 -438q7 -100 74 -111q58 -8 100 -8q27 0 27 -17q0 -20 -39 -20
q-66 0 -172 3t-123 3q-19 0 -116 -3t-142 -3q-41 0 -41 20q0 17 33 17q37 0 73 8q28 5 40.5 33t19.5 80q10 86 10 436v360q0 368 -4 434q-3 55 -21 81t-67 36q-24 6 -80 6q-35 0 -35 19q0 18 45 18q62 0 166 -3t121 -3q22 0 116 3t132 3q43 0 43 -18q0 -19 -29 -19
q-19 0 -57 -6q-40 -7 -56.5 -34t-19.5 -83q-4 -66 -4 -434zM1047 -201q0 -30 -23 -86q-23 -52 -61.5 -120t-77.5 -113q-25 -21 -31 -21q-4 0 -9 6.5t-5 12.5q0 4 2.5 8.5t6.5 10.5t5 9q51 87 51 154q0 34 -11.5 62t-25.5 42.5t-25.5 27t-11.5 20.5q0 44 45 83t87 39
q11 0 18.5 -8t26.5 -37q39 -61 39 -90z" />
    <glyph glyph-name="kcommaaccent" unicode="&#x137;" horiz-adv-x="1402" 
d="M530 807v-78h9q29 31 188.5 191.5t187.5 191.5q69 77 81 98q10 18 10 31q0 29 -25 35t-25 18q0 17 29 17q18 0 89 -2t97 -2q27 0 105 2t106 2q31 0 31 -17q0 -18 -27 -18q-46 0 -104 -21q-86 -30 -190 -129q-78 -72 -211.5 -200.5t-169.5 -169.5q43 -56 234 -257
t253 -259q14 -12 46 -42t49 -45t44.5 -37t53 -37t53.5 -26q51 -22 110 -22q10 0 17.5 -5.5t7.5 -13.5q0 -18 -43 -18h-158q-86 0 -125 4q-68 6 -119 32t-114 81q-53 46 -240 259.5t-223 262.5l-18 24h-9v-157q0 -278 5 -373q6 -80 65 -90q38 -6 88 -6q10 0 17.5 -6.5
t7.5 -12.5q0 -18 -35 -18q-57 0 -158 3t-117 3q-17 0 -102 -3t-125 -3q-35 0 -35 18q0 19 29 19q39 0 63 6q26 6 37.5 28t16.5 64q8 74 8 371v307q0 314 -2 369q-3 44 -19 63t-59 31q-21 6 -72 6q-30 0 -30 18q0 17 41 17q53 0 145 -2t107 -2q20 0 110 2t121 2q39 0 39 -17
q0 -18 -25 -18q-17 0 -51 -6q-36 -6 -50.5 -26.5t-17.5 -67.5q-2 -55 -2 -369zM952 -242q0 -33 -22 -86q-23 -52 -61.5 -120t-77.5 -113q-25 -21 -31 -21q-5 0 -10 6.5t-5 12.5q0 4 3 9t7 10.5t5 8.5q51 87 51 154q0 34 -11.5 62t-25.5 42.5t-25.5 27t-11.5 20.5
q0 44 44.5 83.5t86.5 39.5q11 0 18 -8t27 -38q39 -61 39 -90z" />
    <glyph glyph-name="Lacute" unicode="&#x139;" horiz-adv-x="1239" 
d="M592 948v-360q0 -124 0.5 -178.5t4.5 -122t13 -97t25 -43.5q28 -24 80.5 -34.5t167.5 -10.5q98 0 151 10t88 48q19 20 35 57t19 66q3 30 22 30q10 0 13 -7t3 -27q0 -25 -9.5 -111t-20.5 -125q-9 -35 -30.5 -45t-98.5 -10q-70 0 -346 6q-138 6 -250 6q-68 0 -117 -2
q-24 0 -72.5 -2t-68.5 -2q-41 0 -41 20q0 17 33 17q37 0 73 8q28 5 40.5 33t19.5 80q10 86 10 436v360q0 368 -4 434q-3 55 -21 81t-67 36q-24 6 -68 6q-35 0 -35 19q0 18 45 18q53 0 156 -3t125 -3q21 0 127.5 3t150.5 3q43 0 43 -18q0 -19 -36 -19q-42 0 -80 -6
q-40 -7 -56.5 -34t-19.5 -83q-4 -66 -4 -434zM848 1991q18 -32 59 -123q15 -31 -10 -31q-2 0 -12.5 1t-25 1t-32.5 -2q-77 -10 -180 -47.5t-170 -73.5q-32 -16 -35 -16q-4 0 -8 3.5t-4 8.5q0 8 19 27q55 52 176 145.5t153 112.5q26 18 41 18q16 0 29 -24z" />
    <glyph glyph-name="lacute" unicode="&#x13a;" horiz-adv-x="1130" 
d="M537 807v-307q0 -110 0.5 -151.5t4 -99t11.5 -81t22 -35.5q42 -37 240 -37q87 0 133.5 8.5t77.5 40.5q16 16 29 47t16 58q3 26 21 26q16 0 16 -38q0 -21 -9 -94t-18 -107q-9 -31 -27.5 -39t-86.5 -8q-189 0 -324 6q-180 4 -240 4q-7 0 -42.5 -1t-59.5 -1q-86 -4 -125 -4
q-35 0 -35 18q0 19 29 19q39 0 63 6q26 6 37.5 28t16.5 64q8 74 8 371v307q0 314 -2 369q-3 44 -19 63t-59 31q-21 6 -59 6q-31 0 -31 18q0 17 39 17q46 0 137 -2t111 -2q18 0 120 2t140 2q39 0 39 -17q0 -18 -33 -18q-40 0 -70 -6q-36 -6 -50 -26.5t-17 -67.5
q-4 -55 -4 -369zM803 1761q18 -32 59 -123q14 -30 -10 -30q-2 0 -12.5 1t-25 1t-32.5 -2q-77 -10 -180 -47.5t-170 -73.5q-34 -17 -35 -17q-4 0 -8 4t-4 9q0 8 18 26q55 52 176.5 145t153.5 113q27 19 41 19q10 0 15.5 -5t13.5 -20z" />
    <glyph glyph-name="Lcommaaccent" unicode="&#x13b;" horiz-adv-x="1239" 
d="M592 948v-360q0 -124 0.5 -178.5t4.5 -122t13 -97t25 -43.5q28 -24 80.5 -34.5t167.5 -10.5q98 0 151 10t88 48q19 20 35 57t19 66q3 30 22 30q10 0 13 -7t3 -27q0 -25 -9.5 -111t-20.5 -125q-9 -35 -30.5 -45t-98.5 -10q-70 0 -346 6q-138 6 -250 6q-68 0 -117 -2
q-24 0 -72.5 -2t-68.5 -2q-41 0 -41 20q0 17 33 17q37 0 73 8q28 5 40.5 33t19.5 80q10 86 10 436v360q0 368 -4 434q-3 55 -21 81t-67 36q-24 6 -68 6q-35 0 -35 19q0 18 45 18q53 0 156 -3t125 -3q21 0 127.5 3t150.5 3q43 0 43 -18q0 -19 -36 -19q-42 0 -80 -6
q-40 -7 -56.5 -34t-19.5 -83q-4 -66 -4 -434zM870 -242q0 -33 -22 -86q-23 -52 -61.5 -120t-77.5 -113q-25 -21 -31 -21q-4 0 -9 6.5t-5 12.5q0 4 2.5 8.5t6.5 10.5t5 9q51 87 51 154q0 34 -11.5 62t-25.5 42.5t-25.5 27t-11.5 20.5q0 44 44.5 83.5t86.5 39.5q11 0 18 -8
t27 -38q39 -61 39 -90z" />
    <glyph glyph-name="lcommaaccent" unicode="&#x13c;" horiz-adv-x="1130" 
d="M537 807v-307q0 -110 0.5 -151.5t4 -99t11.5 -81t22 -35.5q42 -37 240 -37q87 0 133.5 8.5t77.5 40.5q16 16 29 47t16 58q3 26 21 26q16 0 16 -38q0 -21 -9 -94t-18 -107q-9 -31 -27.5 -39t-86.5 -8q-189 0 -324 6q-180 4 -240 4q-7 0 -42.5 -1t-59.5 -1q-86 -4 -125 -4
q-35 0 -35 18q0 19 29 19q39 0 63 6q26 6 37.5 28t16.5 64q8 74 8 371v307q0 314 -2 369q-3 44 -19 63t-59 31q-21 6 -59 6q-31 0 -31 18q0 17 39 17q46 0 137 -2t111 -2q18 0 120 2t140 2q39 0 39 -17q0 -18 -33 -18q-40 0 -70 -6q-36 -6 -50 -26.5t-17 -67.5
q-4 -55 -4 -369zM795 -242q0 -30 -23 -86q-23 -52 -61.5 -120t-77.5 -113q-25 -21 -31 -21q-4 0 -9 6.5t-5 12.5q0 4 2.5 8.5t6.5 10.5t5 9q51 87 51 154q0 44 -18.5 76t-36.5 50t-18 26q0 44 44.5 83.5t86.5 39.5q11 0 18 -8t27 -38q39 -61 39 -90z" />
    <glyph glyph-name="Lcaron" unicode="&#x13d;" horiz-adv-x="1239" 
d="M592 948v-360q0 -124 0.5 -178.5t4.5 -122t13 -97t25 -43.5q28 -24 80.5 -34.5t167.5 -10.5q98 0 151 10t88 48q19 20 35 57t19 66q3 30 22 30q10 0 13 -7t3 -27q0 -25 -9.5 -111t-20.5 -125q-9 -35 -30.5 -45t-98.5 -10q-70 0 -346 6q-138 6 -250 6q-68 0 -117 -2
q-24 0 -72.5 -2t-68.5 -2q-41 0 -41 20q0 17 33 17q37 0 73 8q28 5 40.5 33t19.5 80q10 86 10 436v360q0 368 -4 434q-3 55 -21 81t-67 36q-24 6 -68 6q-35 0 -35 19q0 18 45 18q53 0 156 -3t125 -3q21 0 127.5 3t150.5 3q43 0 43 -18q0 -19 -36 -19q-42 0 -80 -6
q-40 -7 -56.5 -34t-19.5 -83q-4 -66 -4 -434zM1198 1407q0 -33 -22 -86q-63 -145 -140 -234q-24 -20 -30 -20q-5 0 -10 6t-5 12q0 4 2.5 9t7 11t5.5 9q51 87 51 154q0 34 -11.5 62t-25.5 42t-25.5 26.5t-11.5 20.5q0 44 44.5 83.5t86.5 39.5q11 0 18.5 -8t26.5 -37
q39 -61 39 -90z" />
    <glyph glyph-name="lcaron" unicode="&#x13e;" horiz-adv-x="1130" 
d="M537 807v-307q0 -110 0.5 -151.5t4 -99t11.5 -81t22 -35.5q42 -37 240 -37q87 0 133.5 8.5t77.5 40.5q16 16 29 47t16 58q3 26 21 26q16 0 16 -38q0 -21 -9 -94t-18 -107q-9 -31 -27.5 -39t-86.5 -8q-189 0 -324 6q-180 4 -240 4q-7 0 -42.5 -1t-59.5 -1q-86 -4 -125 -4
q-35 0 -35 18q0 19 29 19q39 0 63 6q26 6 37.5 28t16.5 64q8 74 8 371v307q0 314 -2 369q-3 44 -19 63t-59 31q-21 6 -59 6q-31 0 -31 18q0 17 39 17q46 0 137 -2t111 -2q18 0 120 2t140 2q39 0 39 -17q0 -18 -33 -18q-40 0 -70 -6q-36 -6 -50 -26.5t-17 -67.5
q-4 -55 -4 -369zM1104 1192q0 -30 -23 -86q-64 -148 -139 -234q-24 -20 -31 -20q-5 0 -9.5 6t-4.5 12q0 4 2.5 9t6.5 11.5t5 8.5q52 89 52 154q0 34 -11.5 62t-25.5 42t-25.5 26.5t-11.5 20.5q0 44 44.5 83.5t86.5 39.5q11 0 18.5 -8t26.5 -37q39 -61 39 -90z" />
    <glyph glyph-name="Lslash" unicode="&#x141;" horiz-adv-x="1239" 
d="M592 778v-190q0 -124 0.5 -178.5t4.5 -122t13 -97t25 -43.5q28 -24 80.5 -34.5t167.5 -10.5q98 0 151 10t88 48q19 20 35 57t19 66q4 36 22 36q16 0 16 -40q0 -25 -9.5 -111t-20.5 -125q-9 -35 -30.5 -45t-98.5 -10q-70 0 -346 6q-138 6 -250 6q-68 0 -117 -2
q-24 0 -72.5 -2t-68.5 -2q-41 0 -41 20q0 17 33 17q37 0 73 8q28 5 40.5 33t19.5 80q10 86 10 436v86l-170 -90q-15 -8 -23 8l-32 70q-6 11 6 18l219 111v157q0 368 -4 434q-3 55 -21 81t-67 36q-24 6 -70 6q-35 0 -35 19q0 18 45 18q54 0 157.5 -3t125.5 -3q21 0 122.5 3
t145.5 3q43 0 43 -18q0 -19 -37 -19q-31 0 -69 -6q-40 -7 -56.5 -34t-19.5 -83q-4 -66 -4 -434v-49l272 133q27 12 33 -6l25 -68q8 -19 -15 -28z" />
    <glyph glyph-name="lslash" unicode="&#x142;" horiz-adv-x="1130" 
d="M537 655v-155q0 -110 0.5 -151.5t4 -99t11.5 -81t22 -35.5q42 -37 242 -37q61 0 90.5 1.5t64.5 12.5t56 33q34 34 43 105q4 33 21 33q18 0 18 -43q0 -21 -9 -94t-18 -107q-9 -31 -27.5 -39t-86.5 -8q-191 0 -326 6q-180 4 -240 4q-7 0 -42.5 -1t-59.5 -1q-86 -4 -125 -4
q-35 0 -35 18q0 19 29 19q39 0 63 6q26 6 37.5 28t16.5 64q8 74 8 356v74l-150 -78q-13 -4 -18 8l-29 66q-3 10 4 14l193 95v143q0 314 -2 369q-3 44 -19 63t-59 31q-21 6 -61 6q-31 0 -31 18q0 17 39 17q48 0 139 -2t111 -2q18 0 116 2t136 2q36 0 36 -17q0 -18 -30 -18
q-32 0 -62 -6q-36 -6 -50 -26.5t-17 -67.5q-4 -55 -4 -369v-43l239 113q22 11 29 -5l22 -63q6 -17 -12 -25z" />
    <glyph glyph-name="Nacute" unicode="&#x143;" horiz-adv-x="1939" 
d="M428 1133l23 -861q3 -114 20.5 -165t50.5 -62q41 -14 107 -14q35 0 35 -17q0 -20 -48 -20q-78 0 -162 3t-92 3q-5 0 -39 -1.5t-84.5 -3t-97.5 -1.5q-15 0 -24 1t-15 5.5t-6 13.5q0 17 33 17q56 0 92 10q38 12 50 63.5t14 190.5l18 1212q0 70 27 70q7 0 13 -2.5t14 -9.5
t13.5 -13t17 -18.5t18.5 -20.5q314 -339 634 -657q59 -59 165.5 -170t189 -197.5t96.5 -99.5h10l-20 920q-1 92 -16.5 130.5t-53.5 53.5q-31 12 -108 12q-33 0 -33 19q0 18 53 18q61 0 147.5 -3t100.5 -3q2 0 71.5 3t129.5 3q47 0 47 -18q0 -19 -37 -19t-62 -6
q-42 -12 -57.5 -49t-17.5 -125l-23 -1292q0 -64 -27 -64q-24 0 -69 45q-73 70 -301.5 299t-302.5 303q-99 98 -209 214.5t-194 209t-85 93.5h-6zM1219 1939q20 -36 59 -122q15 -31 -10 -31q-2 0 -12.5 1t-25 1t-32.5 -2q-77 -10 -180 -47.5t-170 -73.5q-32 -16 -35 -16
q-4 0 -8 3.5t-4 8.5q0 9 18 27q55 52 176.5 145t153.5 113q26 18 41 18q10 0 15.5 -5t13.5 -20z" />
    <glyph glyph-name="nacute" unicode="&#x144;" horiz-adv-x="1722" 
d="M387 942l21 -711q3 -96 18 -137t43 -51q37 -12 94 -12q31 0 31 -19q0 -18 -41 -18q-69 0 -148.5 3t-85.5 3q-5 0 -34.5 -1.5t-74.5 -3t-85 -1.5q-41 0 -41 18q0 8 8.5 13.5t20.5 5.5q49 0 82 8q34 9 43.5 50t11.5 161l16 1032q0 26 8.5 42.5t22.5 16.5q10 0 22.5 -8
t21.5 -16t27 -26l7 -7q1 -1 59.5 -60.5t128 -129.5t173.5 -173.5t194 -191.5q52 -51 145 -145t163 -165t81 -81h8l-18 774q-1 77 -15 109.5t-47 44.5q-27 10 -94 10q-29 0 -29 18q0 17 45 17q54 0 135.5 -2t94.5 -2q1 0 62 2t114 2q41 0 41 -17q0 -18 -31 -18q-32 0 -55 -6
q-37 -11 -51 -41t-15 -103l-20 -1097q0 -27 -8.5 -41.5t-20.5 -14.5q-37 0 -74 37q-151 139 -526 502q-86 82 -184 183t-162 168.5t-76 78.5h-6zM1141 1761q18 -32 59 -123q14 -30 -10 -30q-2 0 -12.5 1t-25 1t-32.5 -2q-77 -10 -180 -47.5t-170 -73.5q-34 -17 -35 -17
q-4 0 -8 4t-4 9q0 8 18 26q55 52 176.5 145t153.5 113q27 19 41 19q10 0 15.5 -5t13.5 -20z" />
    <glyph glyph-name="Ncommaaccent" unicode="&#x145;" horiz-adv-x="1939" 
d="M428 1133l23 -861q3 -114 20.5 -165t50.5 -62q41 -14 107 -14q35 0 35 -17q0 -20 -48 -20q-78 0 -162 3t-92 3q-5 0 -39 -1.5t-84.5 -3t-97.5 -1.5q-15 0 -24 1t-15 5.5t-6 13.5q0 17 33 17q56 0 92 10q38 12 50 63.5t14 190.5l18 1212q0 70 27 70q7 0 13 -2.5t14 -9.5
t13.5 -13t17 -18.5t18.5 -20.5q314 -339 634 -657q59 -59 165.5 -170t189 -197.5t96.5 -99.5h10l-20 920q-1 92 -16.5 130.5t-53.5 53.5q-31 12 -108 12q-33 0 -33 19q0 18 53 18q61 0 147.5 -3t100.5 -3q2 0 71.5 3t129.5 3q47 0 47 -18q0 -19 -37 -19t-62 -6
q-42 -12 -57.5 -49t-17.5 -125l-23 -1292q0 -64 -27 -64q-24 0 -69 45q-73 70 -301.5 299t-302.5 303q-99 98 -209 214.5t-194 209t-85 93.5h-6zM1098 -180q0 -30 -23 -86q-64 -148 -139 -234q-24 -20 -31 -20q-5 0 -9.5 6t-4.5 12q0 4 2.5 9t6.5 11.5t5 8.5q51 87 51 154
q0 34 -11.5 62t-25 42t-25 26.5t-11.5 20.5q0 44 44.5 83.5t86.5 39.5q11 0 18.5 -8t26.5 -37q39 -61 39 -90z" />
    <glyph glyph-name="ncommaaccent" unicode="&#x146;" horiz-adv-x="1722" 
d="M387 942l21 -711q3 -96 18 -137t43 -51q37 -12 94 -12q31 0 31 -19q0 -18 -41 -18q-69 0 -148.5 3t-85.5 3q-5 0 -34.5 -1.5t-74.5 -3t-85 -1.5q-41 0 -41 18q0 8 8.5 13.5t20.5 5.5q49 0 82 8q34 9 43.5 50t11.5 161l16 1032q0 26 8.5 42.5t22.5 16.5q10 0 22.5 -8
t21.5 -16t27 -26l7 -7q1 -1 59.5 -60.5t128 -129.5t173.5 -173.5t194 -191.5q52 -51 145 -145t163 -165t81 -81h8l-18 774q-1 77 -15 109.5t-47 44.5q-27 10 -94 10q-29 0 -29 18q0 17 45 17q54 0 135.5 -2t94.5 -2q1 0 62 2t114 2q41 0 41 -17q0 -18 -31 -18q-32 0 -55 -6
q-37 -11 -51 -41t-15 -103l-20 -1097q0 -27 -8.5 -41.5t-20.5 -14.5q-37 0 -74 37q-151 139 -526 502q-86 82 -184 183t-162 168.5t-76 78.5h-6zM969 -180q0 -30 -23 -86q-64 -148 -139 -234q-24 -20 -31 -20q-5 0 -9.5 6t-4.5 12q0 4 2.5 9t6.5 11.5t5 8.5q51 87 51 154
q0 34 -11.5 62t-25 42t-25 26.5t-11.5 20.5q0 44 44.5 83.5t86.5 39.5q11 0 18.5 -8t26.5 -37q39 -61 39 -90z" />
    <glyph glyph-name="Ncaron" unicode="&#x147;" horiz-adv-x="1939" 
d="M428 1133l23 -861q3 -114 20.5 -165t50.5 -62q41 -14 107 -14q35 0 35 -17q0 -20 -48 -20q-78 0 -162 3t-92 3q-5 0 -39 -1.5t-84.5 -3t-97.5 -1.5q-15 0 -24 1t-15 5.5t-6 13.5q0 17 33 17q56 0 92 10q38 12 50 63.5t14 190.5l18 1212q0 70 27 70q7 0 13 -2.5t14 -9.5
t13.5 -13t17 -18.5t18.5 -20.5q314 -339 634 -657q59 -59 165.5 -170t189 -197.5t96.5 -99.5h10l-20 920q-1 92 -16.5 130.5t-53.5 53.5q-31 12 -108 12q-33 0 -33 19q0 18 53 18q61 0 147.5 -3t100.5 -3q2 0 71.5 3t129.5 3q47 0 47 -18q0 -19 -37 -19t-62 -6
q-42 -12 -57.5 -49t-17.5 -125l-23 -1292q0 -64 -27 -64q-24 0 -69 45q-73 70 -301.5 299t-302.5 303q-99 98 -209 214.5t-194 209t-85 93.5h-6zM670 1894l59 60q14 14 23 14q12 0 34 -22q26 -26 94 -82.5t87 -69.5q15 -12 26 -12q18 0 31 8q112 69 213 152q33 26 45 26
q18 0 18 -20q0 -13 -18 -31q-16 -18 -131 -126t-139 -128q-28 -25 -43 -25q-4 0 -37 23q-22 20 -244 184q-29 20 -29 29t11 20z" />
    <glyph glyph-name="ncaron" unicode="&#x148;" horiz-adv-x="1722" 
d="M387 942l21 -711q3 -96 18 -137t43 -51q37 -12 94 -12q31 0 31 -19q0 -18 -41 -18q-69 0 -148.5 3t-85.5 3q-5 0 -34.5 -1.5t-74.5 -3t-85 -1.5q-41 0 -41 18q0 8 8.5 13.5t20.5 5.5q49 0 82 8q34 9 43.5 50t11.5 161l16 1032q0 26 8.5 42.5t22.5 16.5q10 0 22.5 -8
t21.5 -16t27 -26l7 -7q1 -1 59.5 -60.5t128 -129.5t173.5 -173.5t194 -191.5q52 -51 145 -145t163 -165t81 -81h8l-18 774q-1 77 -15 109.5t-47 44.5q-27 10 -94 10q-29 0 -29 18q0 17 45 17q54 0 135.5 -2t94.5 -2q1 0 62 2t114 2q41 0 41 -17q0 -18 -31 -18q-32 0 -55 -6
q-37 -11 -51 -41t-15 -103l-20 -1097q0 -27 -8.5 -41.5t-20.5 -14.5q-37 0 -74 37q-151 139 -526 502q-86 82 -184 183t-162 168.5t-76 78.5h-6zM551 1706l59 59q15 15 23 15q12 0 35 -23q26 -26 93.5 -82t86.5 -69q16 -13 26 -13q16 0 31 9q117 72 213 151q34 27 45 27
q8 0 13.5 -6t5.5 -15q0 -11 -19 -30q-16 -18 -131 -126t-139 -128q-28 -25 -43 -25q-4 0 -37 23q-22 20 -244 184q-28 19 -28 29t10 20z" />
    <glyph glyph-name="Omacron" unicode="&#x14c;" horiz-adv-x="1898" 
d="M938 -35q-123 0 -231 25.5t-190 70t-150 106.5t-114.5 133t-78.5 150.5t-46.5 159t-14.5 158.5q0 77 14.5 155t46 157.5t78.5 150.5t116 134t153.5 108.5t196.5 71.5t240 26q382 0 605 -207t223 -559q0 -175 -60 -329t-168 -267t-268.5 -178.5t-351.5 -65.5zM1024 68
q36 0 72 5t84.5 22.5t91 46t85.5 79.5t73.5 118t49.5 167.5t19 222.5q0 168 -46.5 309t-127.5 235.5t-190.5 147t-235.5 52.5q-76 0 -143.5 -17t-135 -62.5t-116.5 -115.5t-79 -185t-30 -262q0 -214 74 -386t219 -274.5t336 -102.5zM1184 1755h-492q-10 0 -14 3t-2 11l16 74
q5 19 23 19h491q23 0 17 -21l-17 -74q-3 -12 -22 -12z" />
    <glyph glyph-name="omacron" unicode="&#x14d;" horiz-adv-x="1693" 
d="M836 -29q-151 0 -277 41.5t-209.5 109.5t-141.5 157.5t-84 183.5t-26 190q0 93 25.5 185.5t84 183t143.5 159.5t215 111.5t288 42.5q341 0 539 -175.5t198 -475.5q0 -149 -53 -279.5t-149.5 -226.5t-239 -151.5t-313.5 -55.5zM909 66q32 0 63.5 4.5t74 19t79 38.5
t74 66.5t64 99t43 141t16.5 186.5q0 141 -40.5 259t-111 197t-166 122.5t-204.5 43.5q-65 0 -123 -14t-117 -51.5t-101 -95.5t-68.5 -154.5t-26.5 -220.5q0 -180 64 -324.5t189 -230.5t291 -86zM1102 1526h-492q-10 0 -14 3t-2 11l16 74q5 18 23 18h491q23 0 17 -20l-17 -74
q-3 -12 -22 -12z" />
    <glyph glyph-name="Ohungarumlaut" unicode="&#x150;" horiz-adv-x="1898" 
d="M938 -35q-123 0 -231 25.5t-190 70t-150 106.5t-114.5 133t-78.5 150.5t-46.5 159t-14.5 158.5q0 77 14.5 155t46 157.5t78.5 150.5t116 134t153.5 108.5t196.5 71.5t240 26q382 0 605 -207t223 -559q0 -175 -60 -329t-168 -267t-268.5 -178.5t-351.5 -65.5zM1024 68
q36 0 72 5t84.5 22.5t91 46t85.5 79.5t73.5 118t49.5 167.5t19 222.5q0 168 -46.5 309t-127.5 235.5t-190.5 147t-235.5 52.5q-76 0 -143.5 -17t-135 -62.5t-116.5 -115.5t-79 -185t-30 -262q0 -214 74 -386t219 -274.5t336 -102.5zM901 1968q4 5 9 10.5t8 9t7 8t6 7t5 5
t5 4l4 3t3.5 2t3.5 0.5q18 0 39 -8q45 -18 94 -59q10 -8 11 -17.5t-6 -11.5q-41 -12 -80 -29q-65 -30 -147 -79t-132 -89q-31 -24 -45 -24q-8 0 -11 7t1 13q4 9 53 62.5t106 114.5t66 71zM1255 1968q39 45 48 48q2 1 4 1q18 0 39 -8q47 -19 94 -59q10 -8 10.5 -17.5
t-6.5 -11.5q-41 -12 -80 -29q-65 -30 -147 -79t-132 -89q-31 -24 -45 -24q-8 0 -11 7t1 13q4 9 53 62.5t106 114.5t66 71z" />
    <glyph glyph-name="ohungarumlaut" unicode="&#x151;" horiz-adv-x="1693" 
d="M836 -29q-151 0 -277 41.5t-209.5 109.5t-141.5 157.5t-84 183.5t-26 190q0 93 25.5 185.5t84 183t143.5 159.5t215 111.5t288 42.5q341 0 539 -175.5t198 -475.5q0 -149 -53 -279.5t-149.5 -226.5t-239 -151.5t-313.5 -55.5zM909 66q32 0 63.5 4.5t74 19t79 38.5
t74 66.5t64 99t43 141t16.5 186.5q0 141 -40.5 259t-111 197t-166 122.5t-204.5 43.5q-65 0 -123 -14t-117 -51.5t-101 -95.5t-68.5 -154.5t-26.5 -220.5q0 -180 64 -324.5t189 -230.5t291 -86zM768 1739q4 5 9 10.5t8 9t7 8t6 7t5 5t5 4l4 3t3.5 2t3.5 0.5q18 0 39 -8
q43 -17 94 -60q10 -8 10.5 -17t-6.5 -11q-38 -11 -79 -29q-65 -30 -147 -79t-132 -89q-32 -25 -45 -25q-8 0 -11 7.5t1 13.5q4 9 53 62.5t106 114.5t66 71zM1122 1739q39 45 48 48q2 1 4 1q17 0 38 -8q46 -19 95 -60q10 -8 10.5 -17t-6.5 -11q-41 -12 -80 -29
q-65 -30 -147 -79t-132 -89q-32 -25 -45 -25q-8 0 -11 7.5t1 13.5q4 9 53 62.5t106 114.5t66 71z" />
    <glyph glyph-name="OE" unicode="&#x152;" horiz-adv-x="2437" 
d="M1737 752v-164v-316q1 -46 7 -73.5t20 -49t43 -31.5t69.5 -15t105.5 -5q140 0 193 25q40 19 60.5 53.5t31.5 97.5q5 31 23 31q8 0 11.5 -6t4 -12t0.5 -19q0 -35 -9.5 -115.5t-17.5 -111.5q-10 -38 -28.5 -45.5t-81.5 -7.5q-87 0 -357 6q-135 6 -231 6q-9 0 -22 -1t-19 -1
q-20 -4 -29 -4q-20 0 -20 14q0 8 2.5 28t3.5 34q2 23 2 112q-108 -105 -248.5 -161t-341.5 -56q-118 0 -222 25.5t-184 70t-145.5 106t-110 132.5t-75.5 151t-45 160t-14 160q0 117 29 229.5t92.5 217t156 182.5t229.5 125t302 47q112 0 204.5 -18.5t160 -53.5t115.5 -73.5
t91 -88.5h6q0 121 -2 146q0 6 -2 20t-2 21q0 18 20 18q2 0 11 -1t18 -1q28 -4 70 -4q473 0 512 2q68 7 88 12l15 5t18 4q12 0 12 -19q0 -5 -2.5 -18t-6.5 -43.5t-7 -71.5q0 -3 -4.5 -61.5t-6.5 -73.5q-5 -23 -20 -23q-19 0 -19 29q0 44 -12 74q-12 31 -39 48t-98 25
q-24 3 -138 6t-153 3q-14 0 -14 -21v-516q0 -23 14 -23q269 0 328 5q77 6 98 30q24 27 33 27q14 0 14 -18q0 -4 -2 -19t-6.5 -50.5t-7.5 -80.5q-1 -17 -3 -49t-3.5 -57t-1.5 -31q0 -39 -19 -39q-18 0 -18 18q-6 61 -9 74q-17 70 -114 80q-78 8 -291 8q-12 0 -12 -20z
M391 831q0 -178 49.5 -325t134 -242t194.5 -146.5t232 -51.5q226 0 358 158.5t132 471.5q0 161 -40.5 301t-115 245.5t-190.5 166.5t-258 61q-100 0 -187.5 -38t-157.5 -113.5t-110.5 -200.5t-40.5 -287z" />
    <glyph glyph-name="oe" unicode="&#x153;" horiz-adv-x="2185" 
d="M1544 635v-139v-256q3 -89 52.5 -118.5t189.5 -29.5q117 0 166 21q34 15 52.5 45t27.5 84q6 26 20 26q19 0 19 -41q0 -30 -9 -98t-16 -94q-9 -32 -25 -38.5t-71 -6.5q-258 0 -338 4q-120 6 -211 6q-16 0 -36 -3t-26 -3q-16 0 -16 12q0 3 4 53q2 18 2 109
q-102 -97 -226.5 -147t-301.5 -50q-145 0 -264.5 41.5t-199.5 109t-135 157.5t-79.5 184.5t-24.5 191.5q0 100 25.5 195.5t81.5 184t137.5 154.5t202 106t266.5 40q189 0 307.5 -55.5t206.5 -155.5h4q0 116 -2 136q0 6 -1 17t-1 17q0 17 16 17q3 0 13 -1t30 -2t46 -1h481
q41 0 76 10q4 1 14 4.5t14 3.5q13 0 13 -16q0 -4 -3 -15.5t-6.5 -37t-5.5 -60.5q0 -3 -4 -53t-6 -62q-7 -26 -21 -26q-16 0 -16 22q0 40 -12 64q-9 19 -17 29t-32.5 20t-67.5 14q-47 6 -281 6q-12 0 -12 -16v-428q0 -18 12 -18q232 0 314 4q68 3 86 24q23 23 31 23
q12 0 12 -15q0 -8 -14 -131q-9 -79 -9 -116t-18 -37q-16 0 -16 14q-1 6 -2 18.5t-2 24t-3 21.5q-8 29 -30 46t-70 21q-49 6 -279 6q-12 0 -12 -16zM360 707q0 -151 43 -274t117 -201t169.5 -120t203.5 -42q86 0 162.5 31.5t138 93.5t97.5 164.5t36 232.5q0 180 -66.5 328
t-189.5 234.5t-278 86.5q-89 0 -165 -31t-137 -93t-96 -167.5t-35 -242.5z" />
    <glyph glyph-name="Racute" unicode="&#x154;" horiz-adv-x="1546" 
d="M336 588v360q0 368 -4 434q-3 55 -21 81t-67 36q-24 6 -80 6q-35 0 -35 19q0 18 45 18q63 0 165.5 -3t115.5 -3q36 0 146.5 3t141.5 3q116 0 208.5 -18t168.5 -70q52 -36 96 -111.5t44 -168.5q0 -120 -61 -229t-210 -230q19 -24 85 -107.5t86.5 -109t71 -88t76.5 -92.5
t61.5 -70.5t64.5 -71.5q113 -116 229 -139q35 -6 57 -6q25 0 25 -17q0 -20 -39 -20h-195q-85 0 -132 8.5t-87 30.5q-62 33 -123 101t-157 200q-31 43 -80 112t-80 112.5t-43 57.5q-13 15 -37 15l-178 4q-16 0 -16 -17v-28q0 -352 10 -438q5 -51 21.5 -79t58.5 -34
q62 -8 100 -8q25 0 25 -17q0 -20 -41 -20q-70 0 -183 3t-118 3q-14 0 -109 -3t-141 -3q-41 0 -41 20q0 17 33 17q37 0 73 8q28 5 40.5 33t19.5 80q10 86 10 436zM578 1409v-623q0 -17 3.5 -24t14.5 -12q64 -21 156 -21q60 0 88 7t57 28q52 39 86.5 115t34.5 192
q0 83 -21 150t-54 108t-76 68.5t-83 38t-79 10.5q-82 0 -109 -8q-18 -5 -18 -29zM1012 1991q18 -32 59 -123q15 -31 -10 -31q-2 0 -12.5 1t-25 1t-32.5 -2q-77 -10 -180 -47.5t-170 -73.5q-32 -16 -35 -16q-4 0 -8 3.5t-4 8.5q0 9 18 27q55 52 176.5 145t153.5 113
q26 18 41 18q16 0 29 -24z" />
    <glyph glyph-name="racute" unicode="&#x155;" horiz-adv-x="1404" 
d="M295 500v307q0 314 -2 369q-3 44 -19 63t-59 31q-21 6 -72 6q-30 0 -30 18q0 17 41 17q54 0 144 -2t101 -2q31 0 142.5 2t138.5 2q229 0 342 -74q48 -33 87.5 -97t39.5 -143q0 -97 -59 -188t-191 -197q108 -133 155.5 -191t118 -139t121.5 -132q35 -35 66.5 -58.5t59 -35
t37.5 -14.5t30 -7q18 -4 43 -4q10 0 16 -6t6 -13q0 -18 -34 -18h-172q-131 0 -197 35q-55 27 -109 85.5t-137 170.5q-39 51 -99.5 138t-70.5 99q-13 13 -33 13l-161 4q-15 0 -15 -15v-24q0 -269 11 -371q5 -44 18 -65t51 -27q40 -6 88 -6q10 0 16.5 -6t6.5 -13
q0 -18 -37 -18q-62 0 -169.5 3t-111.5 3q-13 0 -96.5 -3t-124.5 -3q-35 0 -35 18q0 19 29 19q39 0 63 6q26 6 37.5 28t16.5 64q8 74 8 371zM524 1190v-518q0 -22 17 -31q52 -16 137 -16q54 0 79 5.5t48 22.5q117 83 117 258q0 70 -18.5 126t-47.5 89.5t-67 55.5t-72.5 30.5
t-69.5 8.5q-75 0 -106 -7q-17 -6 -17 -24zM961 1761q18 -32 59 -123q14 -30 -10 -30q-2 0 -12.5 1t-25 1t-32.5 -2q-77 -10 -180 -47.5t-170 -73.5q-34 -17 -35 -17q-4 0 -8 4t-4 9q0 8 18 26q55 52 176.5 145t153.5 113q27 19 41 19q10 0 15.5 -5t13.5 -20z" />
    <glyph glyph-name="Rcommaaccent" unicode="&#x156;" horiz-adv-x="1546" 
d="M336 588v360q0 368 -4 434q-3 55 -21 81t-67 36q-24 6 -80 6q-35 0 -35 19q0 18 45 18q63 0 165.5 -3t115.5 -3q36 0 146.5 3t141.5 3q116 0 208.5 -18t168.5 -70q52 -36 96 -111.5t44 -168.5q0 -120 -61 -229t-210 -230q19 -24 85 -107.5t86.5 -109t71 -88t76.5 -92.5
t61.5 -70.5t64.5 -71.5q113 -116 229 -139q35 -6 57 -6q25 0 25 -17q0 -20 -39 -20h-195q-85 0 -132 8.5t-87 30.5q-62 33 -123 101t-157 200q-31 43 -80 112t-80 112.5t-43 57.5q-13 15 -37 15l-178 4q-16 0 -16 -17v-28q0 -352 10 -438q5 -51 21.5 -79t58.5 -34
q62 -8 100 -8q25 0 25 -17q0 -20 -41 -20q-70 0 -183 3t-118 3q-14 0 -109 -3t-141 -3q-41 0 -41 20q0 17 33 17q37 0 73 8q28 5 40.5 33t19.5 80q10 86 10 436zM578 1409v-623q0 -17 3.5 -24t14.5 -12q64 -21 156 -21q60 0 88 7t57 28q52 39 86.5 115t34.5 192
q0 83 -21 150t-54 108t-76 68.5t-83 38t-79 10.5q-82 0 -109 -8q-18 -5 -18 -29zM1034 -201q0 -33 -22 -86q-22 -51 -61 -119t-79 -114q-3 -2 -10 -9t-11 -9.5t-9 -2.5t-10 6.5t-5 12.5q0 4 3 9t7 10.5t5 8.5q51 87 51 154q0 34 -11.5 62t-25.5 42.5t-25.5 27t-11.5 20.5
q0 44 44.5 83t86.5 39q11 0 18.5 -8t26.5 -37q39 -61 39 -90z" />
    <glyph glyph-name="rcommaaccent" unicode="&#x157;" horiz-adv-x="1404" 
d="M295 500v307q0 314 -2 369q-3 44 -19 63t-59 31q-21 6 -72 6q-30 0 -30 18q0 17 41 17q54 0 144 -2t101 -2q31 0 142.5 2t138.5 2q229 0 342 -74q48 -33 87.5 -97t39.5 -143q0 -97 -59 -188t-191 -197q108 -133 155.5 -191t118 -139t121.5 -132q35 -35 66.5 -58.5t59 -35
t37.5 -14.5t30 -7q18 -4 43 -4q10 0 16 -6t6 -13q0 -18 -34 -18h-172q-131 0 -197 35q-55 27 -109 85.5t-137 170.5q-39 51 -99.5 138t-70.5 99q-13 13 -33 13l-161 4q-15 0 -15 -15v-24q0 -269 11 -371q5 -44 18 -65t51 -27q40 -6 88 -6q10 0 16.5 -6t6.5 -13
q0 -18 -37 -18q-62 0 -169.5 3t-111.5 3q-13 0 -96.5 -3t-124.5 -3q-35 0 -35 18q0 19 29 19q39 0 63 6q26 6 37.5 28t16.5 64q8 74 8 371zM524 1190v-518q0 -22 17 -31q52 -16 137 -16q54 0 79 5.5t48 22.5q117 83 117 258q0 70 -18.5 126t-47.5 89.5t-67 55.5t-72.5 30.5
t-69.5 8.5q-75 0 -106 -7q-17 -6 -17 -24zM932 -242q0 -30 -23 -86q-23 -52 -61.5 -120t-77.5 -113q-25 -21 -31 -21q-4 0 -9 6.5t-5 12.5q0 4 2.5 8.5t6.5 10.5t5 9q52 89 52 154q0 34 -11.5 62t-25.5 42.5t-25.5 27t-11.5 20.5q0 44 44.5 83.5t86.5 39.5q11 0 18 -8
t27 -38q39 -61 39 -90z" />
    <glyph glyph-name="Rcaron" unicode="&#x158;" horiz-adv-x="1546" 
d="M336 588v360q0 368 -4 434q-3 55 -21 81t-67 36q-24 6 -80 6q-35 0 -35 19q0 18 45 18q63 0 165.5 -3t115.5 -3q36 0 146.5 3t141.5 3q116 0 208.5 -18t168.5 -70q52 -36 96 -111.5t44 -168.5q0 -120 -61 -229t-210 -230q19 -24 85 -107.5t86.5 -109t71 -88t76.5 -92.5
t61.5 -70.5t64.5 -71.5q113 -116 229 -139q35 -6 57 -6q25 0 25 -17q0 -20 -39 -20h-195q-85 0 -132 8.5t-87 30.5q-62 33 -123 101t-157 200q-31 43 -80 112t-80 112.5t-43 57.5q-13 15 -37 15l-178 4q-16 0 -16 -17v-28q0 -352 10 -438q5 -51 21.5 -79t58.5 -34
q62 -8 100 -8q25 0 25 -17q0 -20 -41 -20q-70 0 -183 3t-118 3q-14 0 -109 -3t-141 -3q-41 0 -41 20q0 17 33 17q37 0 73 8q28 5 40.5 33t19.5 80q10 86 10 436zM578 1409v-623q0 -17 3.5 -24t14.5 -12q64 -21 156 -21q60 0 88 7t57 28q52 39 86.5 115t34.5 192
q0 83 -21 150t-54 108t-76 68.5t-83 38t-79 10.5q-82 0 -109 -8q-18 -5 -18 -29zM422 1935l59 60q14 14 23 14q13 0 35 -22q26 -26 93.5 -82.5t86.5 -69.5q15 -12 26 -12q18 0 31 8q117 72 213 151q34 27 45 27q8 0 13.5 -5.5t5.5 -14.5q0 -12 -19 -31q-16 -18 -131 -126
t-139 -128q-28 -25 -43 -25q-4 0 -37 23q-22 20 -244 184q-28 19 -28 29t10 20z" />
    <glyph glyph-name="rcaron" unicode="&#x159;" horiz-adv-x="1404" 
d="M295 500v307q0 314 -2 369q-3 44 -19 63t-59 31q-21 6 -72 6q-30 0 -30 18q0 17 41 17q54 0 144 -2t101 -2q31 0 142.5 2t138.5 2q229 0 342 -74q48 -33 87.5 -97t39.5 -143q0 -97 -59 -188t-191 -197q108 -133 155.5 -191t118 -139t121.5 -132q35 -35 66.5 -58.5t59 -35
t37.5 -14.5t30 -7q18 -4 43 -4q10 0 16 -6t6 -13q0 -18 -34 -18h-172q-131 0 -197 35q-55 27 -109 85.5t-137 170.5q-39 51 -99.5 138t-70.5 99q-13 13 -33 13l-161 4q-15 0 -15 -15v-24q0 -269 11 -371q5 -44 18 -65t51 -27q40 -6 88 -6q10 0 16.5 -6t6.5 -13
q0 -18 -37 -18q-62 0 -169.5 3t-111.5 3q-13 0 -96.5 -3t-124.5 -3q-35 0 -35 18q0 19 29 19q39 0 63 6q26 6 37.5 28t16.5 64q8 74 8 371zM524 1190v-518q0 -22 17 -31q52 -16 137 -16q54 0 79 5.5t48 22.5q117 83 117 258q0 70 -18.5 126t-47.5 89.5t-67 55.5t-72.5 30.5
t-69.5 8.5q-75 0 -106 -7q-17 -6 -17 -24zM393 1706l60 59q15 15 22 15q12 0 35 -23q26 -26 93.5 -82t86.5 -69q16 -13 27 -13q16 0 31 9q117 72 213 151q34 27 45 27q8 0 13 -6t5 -15q0 -12 -18 -30q-16 -18 -131.5 -125.5t-139.5 -128.5q-28 -25 -43 -25q-4 0 -37 23
q-28 24 -243 184q-29 20 -29 29q0 10 10 20z" />
    <glyph glyph-name="Sacute" unicode="&#x15a;" horiz-adv-x="1191" 
d="M522 -35q-179 0 -299 53q-25 10 -32 23t-7 47q0 87 11 268q3 54 24 54t21 -35q0 -42 18 -105q32 -107 110.5 -157t182.5 -50q129 0 201.5 71.5t72.5 162.5q0 85 -41 160.5t-159 167.5l-95 73q-164 129 -233.5 243.5t-69.5 242.5q0 170 130.5 278.5t342.5 108.5
q140 0 273 -35q28 -6 28 -25q0 -8 -2 -36.5t-4 -83.5t-2 -125q0 -62 -22 -62q-21 0 -21 37q0 22 -12.5 61t-40.5 74q-80 101 -223 101q-112 0 -178 -58.5t-66 -152.5q0 -72 46 -136t171 -159l58 -43q185 -139 260 -257t75 -265q0 -101 -45 -195.5t-147 -161.5
q-130 -84 -326 -84zM946 1991q23 -42 60 -123q15 -31 -11 -31q-2 0 -12 1t-24.5 1t-32.5 -2q-78 -10 -181 -47.5t-170 -73.5q-32 -16 -34 -16q-4 0 -8.5 3.5t-4.5 8.5q0 8 19 27q55 52 176.5 145t153.5 113q26 18 41 18q10 0 15 -4.5t13 -19.5z" />
    <glyph glyph-name="sacute" unicode="&#x15b;" horiz-adv-x="1105" 
d="M489 -29q-192 0 -292 45q-22 9 -28.5 20t-6.5 40q0 86 10 231q0 45 23 45q18 0 18 -28q0 -41 16 -91q27 -89 108.5 -130.5t178.5 -41.5q114 0 182 63.5t68 158.5q0 68 -34.5 124.5t-143.5 120.5l-105 62q-155 91 -218.5 183.5t-63.5 211.5q0 156 131 253t323 97
q146 0 256 -28q25 -6 25 -23q0 -6 -1.5 -30.5t-3 -71.5t-1.5 -107q0 -55 -23 -55q-18 0 -18 31q0 19 -11 52t-36 62q-67 82 -201 82q-102 0 -174 -50t-72 -136q0 -64 38.5 -115.5t152.5 -114.5l73 -40q171 -94 241.5 -195.5t70.5 -226.5q0 -100 -42 -179.5t-138 -146.5
q-102 -72 -302 -72zM872 1761q23 -42 60 -123q14 -30 -10 -30q-2 0 -12.5 1t-25 1t-32.5 -2q-77 -10 -180 -47.5t-170 -73.5q-34 -17 -35 -17q-4 0 -8 4t-4 9q0 8 18 26q55 52 176.5 145t153.5 113q27 19 41 19q10 0 15 -5t13 -20z" />
    <glyph glyph-name="Scedilla" unicode="&#x15e;" horiz-adv-x="1191" 
d="M1040 406q0 -85 -28.5 -158t-74.5 -121.5t-96 -80.5t-102 -48l-188 -139q114 -11 178 -53.5t64 -110.5q0 -34 -18.5 -69.5t-59 -70.5t-118 -57t-181.5 -22q-35 0 -35 20q0 27 53 27q58 0 115 38.5t57 98.5q0 126 -162 150q-45 6 -45 16q0 7 33 31l148 110q-16 -2 -58 -2
q-179 0 -299 53q-25 10 -32 23t-7 47q0 87 11 268q3 54 24 54t21 -35q0 -42 18 -105q32 -107 110.5 -157t182.5 -50q129 0 201.5 71.5t72.5 162.5q0 85 -41 160.5t-159 167.5l-95 73q-164 129 -233.5 243.5t-69.5 242.5q0 170 130.5 278.5t342.5 108.5q140 0 273 -35
q28 -6 28 -25q0 -8 -2 -36.5t-4 -83.5t-2 -125q0 -62 -22 -62q-21 0 -21 37q0 22 -12.5 61t-40.5 74q-80 101 -223 101q-112 0 -178 -58.5t-66 -152.5q0 -72 46 -136t171 -159l58 -43q185 -139 260 -257t75 -265z" />
    <glyph glyph-name="Scedilla" unicode="&#xf6c1;" horiz-adv-x="1191" 
d="M1040 406q0 -85 -28.5 -158t-74.5 -121.5t-96 -80.5t-102 -48l-188 -139q114 -11 178 -53.5t64 -110.5q0 -34 -18.5 -69.5t-59 -70.5t-118 -57t-181.5 -22q-35 0 -35 20q0 27 53 27q58 0 115 38.5t57 98.5q0 126 -162 150q-45 6 -45 16q0 7 33 31l148 110q-16 -2 -58 -2
q-179 0 -299 53q-25 10 -32 23t-7 47q0 87 11 268q3 54 24 54t21 -35q0 -42 18 -105q32 -107 110.5 -157t182.5 -50q129 0 201.5 71.5t72.5 162.5q0 85 -41 160.5t-159 167.5l-95 73q-164 129 -233.5 243.5t-69.5 242.5q0 170 130.5 278.5t342.5 108.5q140 0 273 -35
q28 -6 28 -25q0 -8 -2 -36.5t-4 -83.5t-2 -125q0 -62 -22 -62q-21 0 -21 37q0 22 -12.5 61t-40.5 74q-80 101 -223 101q-112 0 -178 -58.5t-66 -152.5q0 -72 46 -136t171 -159l58 -43q185 -139 260 -257t75 -265z" />
    <glyph glyph-name="scedilla" unicode="&#x15f;" horiz-adv-x="1105" 
d="M971 369q0 -100 -42 -179.5t-138 -146.5q-58 -43 -164 -61l-166 -123q114 -11 177.5 -53.5t63.5 -110.5q0 -27 -10.5 -54.5t-38 -58t-68.5 -53.5t-108 -38t-151 -15q-35 0 -35 20q0 27 53 27q58 0 115 38.5t57 98.5q0 126 -162 150q-45 6 -45 16q0 7 33 31l154 114h-7
q-192 0 -292 45q-22 9 -28.5 20t-6.5 40q0 86 10 231q0 45 23 45q18 0 18 -28q0 -41 16 -91q27 -89 108.5 -130.5t178.5 -41.5q114 0 182 63.5t68 158.5q0 68 -34.5 124.5t-143.5 120.5l-105 62q-155 91 -218.5 183.5t-63.5 211.5q0 156 131 253t323 97q146 0 256 -28
q25 -6 25 -23q0 -6 -1.5 -30.5t-3 -71.5t-1.5 -107q0 -55 -23 -55q-18 0 -18 31q0 19 -11 52t-36 62q-67 82 -201 82q-102 0 -174 -50t-72 -136q0 -64 38.5 -115.5t152.5 -114.5l73 -40q171 -94 241.5 -195.5t70.5 -226.5z" />
    <glyph glyph-name="scedilla" unicode="&#xf6c2;" horiz-adv-x="1105" 
d="M971 369q0 -100 -42 -179.5t-138 -146.5q-58 -43 -164 -61l-166 -123q114 -11 177.5 -53.5t63.5 -110.5q0 -27 -10.5 -54.5t-38 -58t-68.5 -53.5t-108 -38t-151 -15q-35 0 -35 20q0 27 53 27q58 0 115 38.5t57 98.5q0 126 -162 150q-45 6 -45 16q0 7 33 31l154 114h-7
q-192 0 -292 45q-22 9 -28.5 20t-6.5 40q0 86 10 231q0 45 23 45q18 0 18 -28q0 -41 16 -91q27 -89 108.5 -130.5t178.5 -41.5q114 0 182 63.5t68 158.5q0 68 -34.5 124.5t-143.5 120.5l-105 62q-155 91 -218.5 183.5t-63.5 211.5q0 156 131 253t323 97q146 0 256 -28
q25 -6 25 -23q0 -6 -1.5 -30.5t-3 -71.5t-1.5 -107q0 -55 -23 -55q-18 0 -18 31q0 19 -11 52t-36 62q-67 82 -201 82q-102 0 -174 -50t-72 -136q0 -64 38.5 -115.5t152.5 -114.5l73 -40q171 -94 241.5 -195.5t70.5 -226.5z" />
    <glyph glyph-name="Scaron" unicode="&#x160;" horiz-adv-x="1191" 
d="M522 -35q-179 0 -299 53q-25 10 -32 23t-7 47q0 87 11 268q3 54 24 54t21 -35q0 -42 18 -105q32 -107 110.5 -157t182.5 -50q129 0 201.5 71.5t72.5 162.5q0 85 -41 160.5t-159 167.5l-95 73q-164 129 -233.5 243.5t-69.5 242.5q0 170 130.5 278.5t342.5 108.5
q140 0 273 -35q28 -6 28 -25q0 -8 -2 -36.5t-4 -83.5t-2 -125q0 -62 -22 -62q-21 0 -21 37q0 22 -12.5 61t-40.5 74q-80 101 -223 101q-112 0 -178 -58.5t-66 -152.5q0 -72 46 -136t171 -159l58 -43q185 -139 260 -257t75 -265q0 -101 -45 -195.5t-147 -161.5
q-130 -84 -326 -84zM326 1935l59 60q14 14 23 14q12 0 34 -22q26 -26 94 -82.5t87 -69.5q15 -12 26 -12q18 0 31 8q117 72 213 151q34 27 45 27q18 0 18 -20q0 -13 -18 -31q-16 -18 -131 -126t-139 -128q-28 -25 -43 -25q-4 0 -37 23q-22 20 -244 184q-29 20 -29 29t11 20z
" />
    <glyph glyph-name="scaron" unicode="&#x161;" horiz-adv-x="1105" 
d="M489 -29q-192 0 -292 45q-22 9 -28.5 20t-6.5 40q0 86 10 231q0 45 23 45q18 0 18 -28q0 -41 16 -91q27 -89 108.5 -130.5t178.5 -41.5q114 0 182 63.5t68 158.5q0 68 -34.5 124.5t-143.5 120.5l-105 62q-155 91 -218.5 183.5t-63.5 211.5q0 156 131 253t323 97
q146 0 256 -28q25 -6 25 -23q0 -6 -1.5 -30.5t-3 -71.5t-1.5 -107q0 -55 -23 -55q-18 0 -18 31q0 19 -11 52t-36 62q-67 82 -201 82q-102 0 -174 -50t-72 -136q0 -64 38.5 -115.5t152.5 -114.5l73 -40q171 -94 241.5 -195.5t70.5 -226.5q0 -100 -42 -179.5t-138 -146.5
q-102 -72 -302 -72zM303 1706l59 59q15 15 23 15q12 0 35 -23q26 -26 93.5 -82t86.5 -69q16 -13 27 -13q15 0 30 9q117 72 213 151q34 27 45 27q8 0 13.5 -6t5.5 -15q0 -11 -19 -30q-16 -18 -131 -126t-139 -128q-28 -25 -43 -25q-4 0 -37 23q-28 24 -243 184q-29 20 -29 29
q0 10 10 20z" />
    <glyph glyph-name="Tcommaaccent" unicode="&#x162;" horiz-adv-x="1454" 
d="M608 588v839l-305 -8q-93 -3 -135 -14.5t-64 -44.5q-26 -40 -34 -72q-6 -24 -23 -24q-18 0 -18 32q0 21 18.5 116.5t24.5 119.5q9 39 24 39q5 0 32 -11.5t56 -13.5q98 -10 205 -10h811q64 0 141 10q52 10 56 10q10 0 13 -9t3 -34q0 -20 -3 -114.5t-3 -122.5
q-3 -33 -18 -33q-12 0 -16.5 8.5t-6.5 32.5l-2 23q-3 46 -60 78.5t-182 35.5l-258 6v-839q0 -350 10 -438q5 -50 21.5 -78t58.5 -33q58 -8 105 -8q33 0 33 -17q0 -20 -39 -20q-77 0 -190 3t-132 3t-116 -3t-142 -3q-41 0 -41 20q0 17 33 17q38 0 74 8q28 6 41 34.5t18 78.5
q10 86 10 436zM844 -242q0 -30 -23 -86q-23 -52 -61.5 -120t-77.5 -113q-25 -21 -31 -21q-4 0 -9 6.5t-5 12.5q0 4 2.5 8.5t6.5 10.5t5 9q51 87 51 154q0 34 -11.5 62t-25 42.5t-25 27t-11.5 20.5q0 44 44.5 83.5t86.5 39.5q11 0 18 -8t27 -38q39 -61 39 -90z" />
    <glyph glyph-name="tcommaaccent" unicode="&#x163;" horiz-adv-x="1296" 
d="M535 500v704l-269 -6q-79 -2 -116.5 -13t-57.5 -40q-20 -28 -31 -60q-6 -22 -20 -22q-16 0 -16 29q0 19 16.5 107t21.5 104q6 32 21 32q5 0 29 -8.5t49 -11.5q71 -8 180 -8h731q69 0 123 8q12 2 23.5 4t17.5 3t8 1q15 0 15 -37q0 -18 -2.5 -103t-2.5 -108q-3 -28 -16 -28
q-10 0 -14 7t-6 27l-2 19q-4 40 -53 69.5t-160 30.5l-228 4v-704q0 -278 10 -373q5 -42 19 -63t51 -27q38 -6 92 -6q14 0 21.5 -6t7.5 -13q0 -18 -35 -18q-68 0 -171 3t-120 3t-106 -3t-129 -3q-35 0 -35 18q0 19 29 19q42 0 63 6q26 6 37 27.5t16 64.5q9 83 9 371z
M756 -242q0 -30 -23 -86q-23 -52 -61.5 -120t-77.5 -113q-25 -21 -31 -21q-4 0 -9 6.5t-5 12.5q0 4 2.5 8.5t6.5 10.5t5 9q51 87 51 154q0 34 -11.5 62t-25 42.5t-25 27t-11.5 20.5q0 44 44.5 83.5t86.5 39.5q11 0 18 -8t27 -38q39 -61 39 -90z" />
    <glyph glyph-name="Tcaron" unicode="&#x164;" horiz-adv-x="1454" 
d="M608 588v839l-305 -8q-93 -3 -135 -14.5t-64 -44.5q-26 -40 -34 -72q-6 -24 -23 -24q-18 0 -18 32q0 21 18.5 116.5t24.5 119.5q9 39 24 39q5 0 32 -11.5t56 -13.5q98 -10 205 -10h811q64 0 141 10q52 10 56 10q10 0 13 -9t3 -34q0 -20 -3 -114.5t-3 -122.5
q-3 -33 -18 -33q-12 0 -16.5 8.5t-6.5 32.5l-2 23q-3 46 -60 78.5t-182 35.5l-258 6v-839q0 -350 10 -438q5 -50 21.5 -78t58.5 -33q58 -8 105 -8q33 0 33 -17q0 -20 -39 -20q-77 0 -190 3t-132 3t-116 -3t-142 -3q-41 0 -41 20q0 17 33 17q38 0 74 8q28 6 41 34.5t18 78.5
q10 86 10 436zM426 1935l59 60q14 14 23 14q13 0 35 -22q26 -26 93.5 -82.5t86.5 -69.5q15 -12 27 -12q17 0 30 8q117 72 213 151q34 27 45 27q8 0 13.5 -5.5t5.5 -14.5q0 -12 -19 -31q-16 -18 -131 -126t-139 -128q-28 -25 -43 -25q-4 0 -37 23q-22 20 -244 184
q-28 19 -28 29t10 20z" />
    <glyph glyph-name="tcaron" unicode="&#x165;" horiz-adv-x="1296" 
d="M535 500v704l-269 -6q-79 -2 -116.5 -13t-57.5 -40q-20 -28 -31 -60q-6 -22 -20 -22q-16 0 -16 29q0 19 16.5 107t21.5 104q6 32 21 32q5 0 29 -8.5t49 -11.5q71 -8 180 -8h731q69 0 123 8q12 2 23.5 4t17.5 3t8 1q15 0 15 -37q0 -18 -2.5 -103t-2.5 -108q-3 -28 -16 -28
q-10 0 -14 7t-6 27l-2 19q-4 40 -53 69.5t-160 30.5l-228 4v-704q0 -278 10 -373q5 -42 19 -63t51 -27q38 -6 92 -6q14 0 21.5 -6t7.5 -13q0 -18 -35 -18q-68 0 -171 3t-120 3t-106 -3t-129 -3q-35 0 -35 18q0 19 29 19q42 0 63 6q26 6 37 27.5t16 64.5q9 83 9 371z
M338 1706l59 59q15 15 23 15q12 0 35 -23q26 -26 93.5 -82t86.5 -69q16 -13 27 -13q15 0 30 9q117 72 213 151q34 27 45 27q8 0 13.5 -6t5.5 -15q0 -11 -19 -30q-16 -18 -131 -126t-139 -128q-28 -25 -43 -25q-4 0 -37 23q-22 20 -244 184q-28 19 -28 29t10 20z" />
    <glyph glyph-name="Umacron" unicode="&#x16a;" horiz-adv-x="1744" 
d="M248 649v299q0 368 -4 434q-3 55 -21 81t-67 36q-24 6 -80 6q-35 0 -35 19q0 18 45 18q60 0 167 -3t132 -3q21 0 116.5 3t135.5 3q45 0 45 -18q0 -19 -33 -19q-21 0 -59 -6q-40 -7 -56.5 -34t-19.5 -83q-4 -66 -4 -434v-286q0 -211 39.5 -324.5t120.5 -179.5
q102 -84 256 -84q172 0 282 110q76 76 97.5 194t21.5 314v256q0 368 -4 434q-3 55 -21 81t-67 36q-24 6 -74 6q-35 0 -35 19q0 18 43 18q29 0 64 -0.5t64 -1.5t53.5 -2t39.5 -2h15q6 0 96 3t137 3q43 0 43 -18q0 -19 -36 -19q-23 0 -60 -6q-40 -7 -56.5 -34t-19.5 -83
q-4 -66 -4 -434v-219q0 -98 -6.5 -174t-25.5 -161.5t-59.5 -156.5t-102.5 -124q-99 -86 -204 -117t-222 -31q-55 0 -99 3.5t-110.5 16t-129.5 43t-116 78.5q-182 164 -182 543zM1147 1755h-492q-10 0 -14 3t-2 11l16 74q5 19 23 19h491q23 0 17 -21l-17 -74q-3 -12 -22 -12z
" />
    <glyph glyph-name="umacron" unicode="&#x16b;" horiz-adv-x="1556" 
d="M217 551v256q0 341 -2 369q-3 45 -18.5 63.5t-59.5 30.5q-21 6 -69 6q-31 0 -31 18q0 17 39 17q53 0 151 -2t119 -2q20 0 108 2t124 2q38 0 38 -17q0 -18 -28 -18q-18 0 -53 -6t-49 -26.5t-17 -67.5q-4 -55 -4 -369v-244q0 -181 33 -273.5t104 -148.5q88 -69 227 -69
q147 0 242 92q36 34 58.5 78.5t32 105t12 110t2.5 130.5v219q0 231 -5 369q-3 45 -18 63.5t-57 30.5q-21 6 -66 6q-31 0 -31 18q0 17 37 17q26 0 57.5 -0.5t58 -1t49 -1t36.5 -0.5l14 -1q4 0 87 2t124 2q37 0 37 -17q0 -18 -31 -18q-18 0 -53 -6q-36 -6 -49 -26t-16 -68
q-4 -110 -4 -369v-186q0 -84 -6 -149t-22.5 -137.5t-52.5 -133t-91 -105.5q-150 -125 -381 -125q-276 0 -412 119q-164 143 -164 461zM1053 1526h-492q-10 0 -14 3t-2 11l16 74q5 18 23 18h491q23 0 17 -20l-17 -74q-3 -12 -22 -12z" />
    <glyph glyph-name="Uring" unicode="&#x16e;" horiz-adv-x="1744" 
d="M248 649v299q0 368 -4 434q-3 55 -21 81t-67 36q-24 6 -80 6q-35 0 -35 19q0 18 45 18q60 0 167 -3t132 -3q21 0 116.5 3t135.5 3q45 0 45 -18q0 -19 -33 -19q-21 0 -59 -6q-40 -7 -56.5 -34t-19.5 -83q-4 -66 -4 -434v-286q0 -211 39.5 -324.5t120.5 -179.5
q102 -84 256 -84q172 0 282 110q76 76 97.5 194t21.5 314v256q0 368 -4 434q-3 55 -21 81t-67 36q-24 6 -74 6q-35 0 -35 19q0 18 43 18q29 0 64 -0.5t64 -1.5t53.5 -2t39.5 -2h15q6 0 96 3t137 3q43 0 43 -18q0 -19 -36 -19q-23 0 -60 -6q-40 -7 -56.5 -34t-19.5 -83
q-4 -66 -4 -434v-219q0 -98 -6.5 -174t-25.5 -161.5t-59.5 -156.5t-102.5 -124q-99 -86 -204 -117t-222 -31q-55 0 -99 3.5t-110.5 16t-129.5 43t-116 78.5q-182 164 -182 543zM879 1679q-83 0 -133 34.5t-50 88.5q0 72 81.5 126t199.5 54q89 0 141.5 -32.5t52.5 -85.5
q1 -81 -91 -133t-201 -52zM821 1831q0 -44 32 -72t71 -28q51 0 87 31.5t36 74.5q0 40 -28 67t-81 27q-42 0 -79.5 -26t-37.5 -74z" />
    <glyph glyph-name="uring" unicode="&#x16f;" horiz-adv-x="1556" 
d="M217 551v256q0 341 -2 369q-3 45 -18.5 63.5t-59.5 30.5q-21 6 -69 6q-31 0 -31 18q0 17 39 17q53 0 151 -2t119 -2q20 0 108 2t124 2q38 0 38 -17q0 -18 -28 -18q-18 0 -53 -6t-49 -26.5t-17 -67.5q-4 -55 -4 -369v-244q0 -181 33 -273.5t104 -148.5q88 -69 227 -69
q147 0 242 92q36 34 58.5 78.5t32 105t12 110t2.5 130.5v219q0 231 -5 369q-3 45 -18 63.5t-57 30.5q-21 6 -66 6q-31 0 -31 18q0 17 37 17q26 0 57.5 -0.5t58 -1t49 -1t36.5 -0.5l14 -1q4 0 87 2t124 2q37 0 37 -17q0 -18 -31 -18q-18 0 -53 -6q-36 -6 -49 -26t-16 -68
q-4 -110 -4 -369v-186q0 -84 -6 -149t-22.5 -137.5t-52.5 -133t-91 -105.5q-150 -125 -381 -125q-276 0 -412 119q-164 143 -164 461zM764 1450q-83 0 -132.5 34.5t-49.5 88.5q0 72 81 126t199 54q88 0 141.5 -33t53.5 -86q1 -81 -91.5 -132.5t-201.5 -51.5zM707 1602
q0 -44 31.5 -72.5t70.5 -28.5q51 0 87 32t36 75q0 40 -28 67t-81 27q-42 0 -79 -26t-37 -74z" />
    <glyph glyph-name="Uhungarumlaut" unicode="&#x170;" horiz-adv-x="1744" 
d="M248 649v299q0 368 -4 434q-3 55 -21 81t-67 36q-24 6 -80 6q-35 0 -35 19q0 18 45 18q60 0 167 -3t132 -3q21 0 116.5 3t135.5 3q45 0 45 -18q0 -19 -33 -19q-21 0 -59 -6q-40 -7 -56.5 -34t-19.5 -83q-4 -66 -4 -434v-286q0 -211 39.5 -324.5t120.5 -179.5
q102 -84 256 -84q172 0 282 110q76 76 97.5 194t21.5 314v256q0 368 -4 434q-3 55 -21 81t-67 36q-24 6 -74 6q-35 0 -35 19q0 18 43 18q29 0 64 -0.5t64 -1.5t53.5 -2t39.5 -2h15q6 0 96 3t137 3q43 0 43 -18q0 -19 -36 -19q-23 0 -60 -6q-40 -7 -56.5 -34t-19.5 -83
q-4 -66 -4 -434v-219q0 -98 -6.5 -174t-25.5 -161.5t-59.5 -156.5t-102.5 -124q-99 -86 -204 -117t-222 -31q-55 0 -99 3.5t-110.5 16t-129.5 43t-116 78.5q-182 164 -182 543zM877 1968q4 5 9 10.5t8 9t7 8t6 7t5 5t5 4l4 3t3.5 2t3.5 0.5q18 0 39 -8q45 -18 94 -59
q10 -8 10.5 -17.5t-6.5 -11.5q-41 -12 -80 -29q-64 -30 -146 -78.5t-132 -89.5q-31 -24 -45 -24q-8 0 -11.5 7t0.5 13q4 9 53.5 62.5t106.5 114t66 71.5zM1231 1968q4 5 9 10.5t8 9t7 8t6 7t5 5t5 4l4 3t3.5 2t3.5 0.5q18 0 39 -8q47 -19 94 -59q10 -8 10.5 -17.5
t-6.5 -11.5q-41 -12 -80 -29q-64 -30 -146 -78.5t-132 -89.5q-31 -24 -45 -24q-8 0 -11 7t1 13q4 9 53 62.5t106 114.5t66 71z" />
    <glyph glyph-name="uhungarumlaut" unicode="&#x171;" horiz-adv-x="1556" 
d="M217 551v256q0 341 -2 369q-3 45 -18.5 63.5t-59.5 30.5q-21 6 -69 6q-31 0 -31 18q0 17 39 17q53 0 151 -2t119 -2q20 0 108 2t124 2q38 0 38 -17q0 -18 -28 -18q-18 0 -53 -6t-49 -26.5t-17 -67.5q-4 -55 -4 -369v-244q0 -181 33 -273.5t104 -148.5q88 -69 227 -69
q147 0 242 92q36 34 58.5 78.5t32 105t12 110t2.5 130.5v219q0 231 -5 369q-3 45 -18 63.5t-57 30.5q-21 6 -66 6q-31 0 -31 18q0 17 37 17q26 0 57.5 -0.5t58 -1t49 -1t36.5 -0.5l14 -1q4 0 87 2t124 2q37 0 37 -17q0 -18 -31 -18q-18 0 -53 -6q-36 -6 -49 -26t-16 -68
q-4 -110 -4 -369v-186q0 -84 -6 -149t-22.5 -137.5t-52.5 -133t-91 -105.5q-150 -125 -381 -125q-276 0 -412 119q-164 143 -164 461zM698 1739q39 45 48 48q2 1 4 1q17 0 38 -8q45 -17 95 -60q10 -8 10.5 -17t-6.5 -11q-41 -12 -80 -29q-65 -30 -147 -79t-132 -89
q-32 -25 -45 -25q-8 0 -11 7.5t1 13.5q4 9 53 62.5t106 114.5t66 71zM1053 1739q4 5 9 10.5t8 9t7 8t6 7t5 5t5 4l4 3t3.5 2t3.5 0.5q18 0 39 -8q44 -18 94 -60q10 -8 10.5 -17t-6.5 -11q-41 -12 -80 -29q-64 -30 -146 -78.5t-132 -89.5q-32 -25 -45 -25q-8 0 -11.5 7.5
t0.5 13.5q4 9 53.5 62.5t106.5 114t66 71.5z" />
    <glyph glyph-name="Uogonek" unicode="&#x172;" horiz-adv-x="1744" 
d="M1110 -348q34 0 63 17t47 33.5t25 16.5q19 0 19 -16q0 -12 -17 -33q-117 -135 -254 -135q-95 0 -140.5 37t-45.5 119q0 64 59.5 143.5t126.5 132.5q-22 1 -59 -0.5t-49 -1.5q-55 0 -99 3.5t-110.5 16t-129.5 43t-116 78.5q-182 164 -182 543v299q0 368 -4 434
q-3 55 -21 81t-67 36q-24 6 -80 6q-35 0 -35 19q0 18 45 18q60 0 167 -3t132 -3q21 0 116.5 3t135.5 3q45 0 45 -18q0 -19 -33 -19q-21 0 -59 -6q-40 -7 -56.5 -34t-19.5 -83q-4 -66 -4 -434v-286q0 -211 39.5 -324.5t120.5 -179.5q102 -84 256 -84q172 0 282 110
q76 76 97.5 194t21.5 314v256q0 368 -4 434q-3 55 -21 81t-67 36q-24 6 -74 6q-35 0 -35 19q0 18 43 18q29 0 64 -0.5t64 -1.5t53.5 -2t39.5 -2h15q6 0 96 3t137 3q43 0 43 -18q0 -19 -36 -19q-23 0 -60 -6q-40 -7 -56.5 -34t-19.5 -83q-4 -66 -4 -434v-219q0 -98 -6.5 -174
t-25.5 -161.5t-59.5 -156.5t-102.5 -124q-31 -26 -63.5 -46.5t-76 -44.5t-57.5 -32q-52 -31 -87.5 -102.5t-35.5 -135.5q0 -100 119 -100z" />
    <glyph glyph-name="uogonek" unicode="&#x173;" horiz-adv-x="1556" 
d="M985 -348q34 0 63 17t47 33.5t25 16.5q19 0 19 -16q0 -12 -17 -33q-117 -135 -254 -135q-95 0 -140.5 37t-45.5 119q0 68 67 153.5t134 135.5q-9 3 -21 0q-4 0 -24 -5q-28 -4 -45 -4q-276 0 -412 119q-164 143 -164 461v256q0 341 -2 369q-3 45 -18.5 63.5t-59.5 30.5
q-21 6 -69 6q-31 0 -31 18q0 17 39 17q53 0 151 -2t119 -2q20 0 108 2t124 2q38 0 38 -17q0 -18 -28 -18q-18 0 -53 -6t-49 -26.5t-17 -67.5q-4 -55 -4 -369v-244q0 -181 33 -273.5t104 -148.5q88 -69 227 -69q147 0 242 92q36 34 58.5 78.5t32 105t12 110t2.5 130.5v219
q0 231 -5 369q-3 45 -18 63.5t-57 30.5q-21 6 -66 6q-31 0 -31 18q0 17 37 17q26 0 57.5 -0.5t58 -1t49 -1t36.5 -0.5l14 -1q4 0 87 2t124 2q37 0 37 -17q0 -18 -31 -18q-18 0 -53 -6q-36 -6 -49 -26t-16 -68q-4 -110 -4 -369v-186q0 -84 -6 -149t-22.5 -137.5t-52.5 -133
t-91 -105.5q-26 -22 -54.5 -38.5t-65 -33.5t-53.5 -26q-58 -31 -96.5 -103.5t-38.5 -142.5q0 -100 119 -100z" />
    </font>
</defs>
</svg>
